<?xml version="1.0" standalone="no"?>
<!DOCTYPE svg PUBLIC "-//W3C//DTD SVG 1.1//EN" "http://www.w3.org/Graphics/SVG/1.1/DTD/svg11.dtd" >
<svg xmlns="http://www.w3.org/2000/svg" xmlns:xlink="http://www.w3.org/1999/xlink" version="1.1">
<metadata>
Created by FontForge 20170731 at Fri Feb 16 16:57:33 2018
 By Aleksey,,,
Copyright 2018 IBM Corp. All rights reserved.
</metadata>
<defs>
<font id="IBMPlexSansCond-Medium" horiz-adv-x="540" >
  <font-face 
    font-family="IBM Plex Sans Condensed Medium"
    font-weight="500"
    font-stretch="condensed"
    units-per-em="1000"
    panose-1="2 11 6 6 5 2 3 0 2 3"
    ascent="780"
    descent="-220"
    x-height="520"
    cap-height="698"
    bbox="-263 -258 1160 1136"
    underline-thickness="77"
    underline-position="-197"
    unicode-range="U+000D-FB02"
  />
<missing-glyph horiz-adv-x="424" 
d="M32 780h360v-780h-360v780zM315 77v626h-206v-626h206z" />
    <glyph glyph-name="fi" unicode="fi" horiz-adv-x="552" 
d="M95 435h-72v85h72v99q0 63 28 92t89 29h83v-85h-97v-135h284v-520h-103v435h-181v-435h-103v435zM430 619q-62 0 -62 53v18q0 53 62 53t62 -53v-18q0 -53 -62 -53z" />
    <glyph glyph-name=".notdef" horiz-adv-x="424" 
d="M32 780h360v-780h-360v780zM315 77v626h-206v-626h206z" />
    <glyph glyph-name=".null" horiz-adv-x="0" 
 />
    <glyph glyph-name=".null" horiz-adv-x="0" 
 />
    <glyph glyph-name="uni000D" unicode="&#xd;" horiz-adv-x="212" 
 />
    <glyph glyph-name="space" unicode=" " horiz-adv-x="212" 
 />
    <glyph glyph-name="exclam" unicode="!" horiz-adv-x="272" 
d="M112 197l-31 301v200h110v-200l-30 -301h-49zM136 -12q-36 0 -53 15.5t-17 43.5v22q0 28 17 43.5t53 15.5t53 -15.5t17 -43.5v-22q0 -28 -17 -43.5t-53 -15.5z" />
    <glyph glyph-name="quotedbl" unicode="&#x22;" horiz-adv-x="411" 
d="M69 445v295h92v-295h-92zM250 445v295h92v-295h-92z" />
    <glyph glyph-name="numbersign" unicode="#" horiz-adv-x="605" 
d="M348 192h-144l-30 -192h-69l29 192h-103v65h113l30 184h-105v65h115l29 192h69l-29 -192h144l30 192h69l-29 -192h103v-65h-113l-30 -184h105v-65h-115l-29 -192h-69zM358 257l29 184h-144l-29 -184h144z" />
    <glyph glyph-name="dollar" unicode="$" horiz-adv-x="537" 
d="M499 206q0 -92 -47.5 -142.5t-134.5 -60.5v-85h-83v85q-63 6 -112 33t-84 72l68 62q23 -33 58 -55.5t77 -28.5v235q-96 23 -140 67t-44 121q0 83 46.5 130t130.5 56v85h83v-85q58 -6 101 -30.5t72 -66.5l-67 -56q-43 60 -114 69v-214q49 -12 85 -28.5t59.5 -39t34.5 -53
t11 -70.5zM155 517q0 -44 21.5 -67.5t64.5 -35.5v197q-86 -12 -86 -94zM402 195q0 44 -22 69.5t-71 39.5v-217q45 8 69 34.5t24 73.5z" />
    <glyph glyph-name="percent" unicode="%" horiz-adv-x="857" 
d="M164 0l436 698h93l-436 -698h-93zM205 314q-74 0 -113.5 46.5t-39.5 151.5t39.5 151.5t113.5 46.5q73 0 113 -46.5t40 -151.5t-40 -151.5t-113 -46.5zM205 377q32 0 47.5 20.5t15.5 66.5v96q0 46 -15.5 66.5t-47.5 20.5t-47.5 -20.5t-15.5 -66.5v-96q0 -46 15.5 -66.5
t47.5 -20.5zM652 -12q-74 0 -113.5 46.5t-39.5 151.5t39.5 151.5t113.5 46.5q73 0 113 -46.5t40 -151.5t-40 -151.5t-113 -46.5zM652 51q32 0 47.5 20.5t15.5 66.5v96q0 46 -15.5 66.5t-47.5 20.5t-47.5 -20.5t-15.5 -66.5v-96q0 -46 15.5 -66.5t47.5 -20.5z" />
    <glyph glyph-name="ampersand" unicode="&#x26;" horiz-adv-x="637" 
d="M416 104h-12q-8 -52 -51.5 -84t-105.5 -32q-94 0 -143 51.5t-49 142.5q0 69 32 115t95 81q-77 92 -77 178q0 72 45 113t127 41t127 -41t45 -113q0 -112 -130 -190l119 -152q13 36 19.5 76.5t8.5 82.5h137v-85h-60q-13 -78 -43 -140l124 -148h-128zM277 629q-33 0 -53 -18
t-20 -53v-16q0 -25 17 -57.5t46 -62.5q40 23 61.5 54.5t21.5 66.5v15q0 35 -20 53t-53 18zM272 74q37 0 64.5 15.5t47.5 43.5l-150 188q-38 -20 -56 -48.5t-18 -71.5v-23q0 -50 29.5 -77t82.5 -27z" />
    <glyph glyph-name="quotesingle" unicode="'" horiz-adv-x="230" 
d="M69 445v295h92v-295h-92z" />
    <glyph glyph-name="parenleft" unicode="(" horiz-adv-x="303" 
d="M54 311q0 78 12 145.5t33.5 124t51 101.5t63.5 78h97q-37 -38 -66.5 -83t-50.5 -95t-32 -104.5t-11 -109.5v-114q0 -56 11 -110t32 -104t50.5 -95.5t66.5 -82.5h-97q-34 33 -63.5 78t-51 101.5t-33.5 124t-12 145.5z" />
    <glyph glyph-name="parenright" unicode=")" horiz-adv-x="303" 
d="M249 311q0 -78 -12 -145.5t-33.5 -124t-51 -101.5t-63.5 -78h-97q37 37 66.5 82.5t50.5 95.5t32 104t11 110v114q0 55 -11 109.5t-32 104.5t-50.5 95t-66.5 83h97q34 -33 63.5 -78t51 -101.5t33.5 -124t12 -145.5z" />
    <glyph glyph-name="asterisk" unicode="*" horiz-adv-x="475" 
d="M321 344l-79 140h-9l-79 -140l-78 56l110 118l-3 10l-158 31l30 90l146 -67l8 6l-19 159h95l-19 -159l8 -6l146 67l30 -90l-158 -31l-3 -10l110 -118z" />
    <glyph glyph-name="plus" unicode="+" 
d="M224 91v174h-166v82h166v175h92v-175h166v-82h-166v-174h-92z" />
    <glyph glyph-name="comma" unicode="," horiz-adv-x="263" 
d="M131 129q35 0 52 -15.5t17 -44.5v-21q0 -48 -25 -98.5t-67 -87.5h-75q33 35 51.5 64.5t27.5 63.5q-50 9 -50 58v21q0 29 17 44.5t52 15.5z" />
    <glyph glyph-name="hyphen" unicode="-" horiz-adv-x="360" 
d="M54 252v105h252v-105h-252z" />
    <glyph glyph-name="period" unicode="." horiz-adv-x="264" 
d="M132 -11q-35 0 -52 15.5t-17 44.5v20q0 29 17 44.5t52 15.5t52 -15.5t17 -44.5v-20q0 -29 -17 -44.5t-52 -15.5z" />
    <glyph glyph-name="slash" unicode="/" horiz-adv-x="380" 
d="M6 -151l252 891h87l-252 -891h-87z" />
    <glyph glyph-name="zero" unicode="0" 
d="M270 -12q-59 0 -102 20.5t-71 64t-41 112t-13 164.5t13 164.5t41 112t71 64t102 20.5t102 -20.5t70.5 -64t41 -112t13.5 -164.5t-13.5 -164.5t-41 -112t-70.5 -64t-102 -20.5zM270 79q63 0 88.5 42.5t25.5 130.5v194q0 88 -25.5 130.5t-88.5 42.5t-88.5 -42.5
t-25.5 -130.5v-194q0 -88 25.5 -130.5t88.5 -42.5z" />
    <glyph glyph-name="one" unicode="1" 
d="M76 0v91h167v510l-156 -101l-44 74l192 124h112v-607h150v-91h-421z" />
    <glyph glyph-name="two" unicode="2" 
d="M488 0h-429v103l203 206q51 52 73.5 93t22.5 83v29q0 104 -97 104q-46 0 -76 -27t-41 -78l-93 36q23 78 78.5 119.5t137.5 41.5q107 0 155 -52t48 -147q0 -35 -6.5 -64.5t-22.5 -59t-43 -62.5t-68 -75l-156 -159h314v-91z" />
    <glyph glyph-name="three" unicode="3" 
d="M235 408q52 0 82 26t30 72v22q0 90 -98 90q-43 0 -74 -20t-54 -63l-71 61q34 56 86.5 85t118.5 29q100 0 151.5 -45.5t51.5 -132.5q0 -63 -32.5 -106t-89.5 -54v-12q66 -10 100.5 -52t34.5 -111q0 -98 -60 -153.5t-166 -55.5q-144 0 -219 124l79 60q26 -50 58.5 -72
t79.5 -22q57 0 86.5 27t29.5 81v25q0 54 -29.5 81t-86.5 27h-71v89h63z" />
    <glyph glyph-name="four" unicode="4" 
d="M320 0v135h-289v93l245 470h145v-477h86v-86h-86v-135h-101zM119 221h201v379h-13z" />
    <glyph glyph-name="five" unicode="5" 
d="M459 607h-278l-17 -258h13q12 42 44 68t86 26q85 0 136 -53.5t51 -164.5q0 -115 -58 -176t-168 -61q-71 0 -127 32.5t-86 91.5l78 60q23 -45 56 -68.5t80 -23.5q113 0 113 124v26q0 124 -113 124q-64 0 -105 -56l-90 12l23 388h362v-91z" />
    <glyph glyph-name="six" unicode="6" 
d="M272 -12q-112 0 -168.5 69t-56.5 201q0 63 16 126t46 120.5t71.5 107.5t92.5 86h143q-61 -47 -105 -89.5t-74.5 -84.5t-49.5 -86.5t-29 -96.5h13q17 48 54 73.5t88 25.5q85 0 134.5 -55t49.5 -162q0 -111 -57.5 -173t-167.5 -62zM272 77q113 0 113 124v26q0 124 -113 124
t-113 -124v-26q0 -124 113 -124z" />
    <glyph glyph-name="seven" unicode="7" 
d="M153 0l226 607h-232v-126h-92v217h430v-93l-220 -605h-112z" />
    <glyph glyph-name="eight" unicode="8" 
d="M270 -12q-112 0 -169 54t-57 148q0 75 35.5 117t92.5 52v13q-48 11 -78.5 52.5t-30.5 107.5q0 88 52.5 133t154.5 45t154.5 -45t52.5 -133q0 -66 -30.5 -107.5t-78.5 -52.5v-13q57 -10 92.5 -52t35.5 -117q0 -94 -57 -148t-169 -54zM270 75q55 0 85 28t30 81v28
q0 53 -30 81t-85 28t-85 -28t-30 -81v-28q0 -53 30 -81t85 -28zM270 405q51 0 77.5 25t26.5 72v24q0 47 -26.5 72t-77.5 25t-77.5 -25t-26.5 -72v-24q0 -47 26.5 -72t77.5 -25z" />
    <glyph glyph-name="nine" unicode="9" 
d="M493 440q0 -63 -16 -126t-46 -120.5t-71.5 -107.5t-92.5 -86h-143q61 47 105 89.5t74.5 84.5t49 86.5t29.5 96.5h-13q-17 -48 -54 -73.5t-88 -25.5q-85 0 -134.5 55t-49.5 162q0 111 57.5 173t167.5 62q112 0 168.5 -69t56.5 -201zM268 347q113 0 113 124v26
q0 124 -113 124t-113 -124v-26q0 -124 113 -124z" />
    <glyph glyph-name="colon" unicode=":" horiz-adv-x="278" 
d="M139 -11q-35 0 -52 15.5t-17 44.5v20q0 29 17 44.5t52 15.5t52 -15.5t17 -44.5v-20q0 -29 -17 -44.5t-52 -15.5zM139 385q-35 0 -52 15.5t-17 44.5v20q0 29 17 44.5t52 15.5t52 -15.5t17 -44.5v-20q0 -29 -17 -44.5t-52 -15.5z" />
    <glyph glyph-name="semicolon" unicode=";" horiz-adv-x="278" 
d="M138 129q35 0 52 -15.5t17 -44.5v-21q0 -48 -25 -98.5t-67 -87.5h-75q33 35 51.5 64.5t27.5 63.5q-50 9 -50 58v21q0 29 17 44.5t52 15.5zM139 385q-35 0 -52 15.5t-17 44.5v20q0 29 17 44.5t52 15.5t52 -15.5t17 -44.5v-20q0 -29 -17 -44.5t-52 -15.5z" />
    <glyph glyph-name="less" unicode="&#x3c;" 
d="M85 243v84l370 251v-110l-268 -177v-12l268 -178v-110z" />
    <glyph glyph-name="equal" unicode="=" 
d="M58 368v82h424v-82h-424zM58 162v82h424v-82h-424z" />
    <glyph glyph-name="greater" unicode="&#x3e;" 
d="M455 326v-84l-370 -251v110l268 177v12l-268 178v110z" />
    <glyph glyph-name="question" unicode="?" horiz-adv-x="440" 
d="M151 216v161q74 3 112.5 34t38.5 92v18q0 47 -24 72.5t-66 25.5q-41 0 -68.5 -27.5t-38.5 -78.5l-88 35q20 79 71 120.5t128 41.5q94 0 144.5 -51t50.5 -142q0 -81 -43 -135.5t-118 -69.5v-96h-99zM200 -12q-36 0 -53 15.5t-17 43.5v22q0 28 17 43.5t53 15.5t53 -15.5
t17 -43.5v-22q0 -28 -17 -43.5t-53 -15.5z" />
    <glyph glyph-name="at" unicode="@" horiz-adv-x="808" 
d="M607 -120h-199q-83 0 -149.5 28.5t-113 81.5t-71 129.5t-24.5 171.5q0 96 25 173.5t71.5 132t114 84t151.5 29.5q81 0 145.5 -25.5t109 -74.5t68 -120.5t23.5 -162.5q0 -121 -43.5 -186.5t-125.5 -65.5q-51 0 -78 22t-32 58h-10q-7 -35 -31.5 -57t-64.5 -22
q-32 0 -58.5 12t-46 38.5t-30.5 67t-11 97.5t11 97.5t30.5 67t46 38.5t58.5 12q37 0 60.5 -21t29.5 -56h10v68h86v-292q0 -35 11 -49t34 -14q38 0 58 39.5t20 120.5v59q0 67 -20 120.5t-56.5 91t-87 57t-110.5 19.5q-66 0 -118 -23.5t-88 -65.5t-55 -100t-19 -127v-76
q0 -69 19 -127t55 -100t88 -65.5t118 -23.5h199v-61zM399 149q35 0 54.5 22.5t19.5 55.5v127q0 33 -19.5 55.5t-54.5 22.5q-40 0 -60.5 -25.5t-20.5 -71.5v-89q0 -46 20.5 -71.5t60.5 -25.5z" />
    <glyph glyph-name="A" unicode="A" horiz-adv-x="596" 
d="M468 0l-54 193h-235l-54 -193h-104l209 698h135l210 -698h-107zM324 500l-22 102h-13l-22 -102l-62 -220h184z" />
    <glyph glyph-name="B" unicode="B" horiz-adv-x="595" 
d="M77 698h283q81 0 123 -46t42 -134q0 -67 -29 -105t-83 -43v-12q30 0 54.5 -11.5t42.5 -32.5t28 -50t10 -63q0 -45 -11.5 -82t-32.5 -63.5t-50.5 -41t-65.5 -14.5h-311v698zM183 93h174q38 0 58 20.5t20 65.5v46q0 45 -20 65.5t-58 20.5h-174v-218zM183 402h157
q35 0 54 18.5t19 60.5v45q0 42 -19 60.5t-54 18.5h-157v-203z" />
    <glyph glyph-name="C" unicode="C" horiz-adv-x="573" 
d="M313 -12q-61 0 -109.5 20.5t-83 64.5t-53 112.5t-18.5 163.5t18.5 163.5t53 112.5t83 64.5t109.5 20.5q89 0 142.5 -38.5t85.5 -115.5l-90 -50q-18 59 -50.5 85t-87.5 26q-71 0 -110.5 -49t-39.5 -135v-168q0 -86 39.5 -135t110.5 -49q56 0 90.5 28t53.5 90l88 -52
q-33 -77 -88 -118t-144 -41z" />
    <glyph glyph-name="D" unicode="D" horiz-adv-x="617" 
d="M77 698h230q62 0 110.5 -20t82 -62.5t51 -108.5t17.5 -158t-17.5 -158t-51 -108.5t-82 -62.5t-110.5 -20h-230v698zM307 93q69 0 108 44.5t39 130.5v162q0 86 -39 130.5t-108 44.5h-124v-512h124z" />
    <glyph glyph-name="E" unicode="E" horiz-adv-x="536" 
d="M77 0v698h405v-93h-299v-204h270v-92h-270v-216h299v-93h-405z" />
    <glyph glyph-name="F" unicode="F" horiz-adv-x="515" 
d="M77 0v698h395v-93h-289v-204h256v-92h-256v-309h-106z" />
    <glyph glyph-name="G" unicode="G" horiz-adv-x="635" 
d="M479 103h-12q-10 -50 -51 -82.5t-116 -32.5q-54 0 -99.5 20t-79.5 63.5t-53 112t-19 164.5t18.5 164.5t54 112.5t85.5 64.5t113 20.5q93 0 151 -40t90 -114l-87 -51q-18 51 -54.5 81t-98.5 30q-75 0 -116.5 -48t-41.5 -134v-170q0 -86 41.5 -134t116.5 -48q31 0 58 9
t47.5 26t32 42.5t11.5 57.5v61h-129v91h232v-369h-94v103z" />
    <glyph glyph-name="H" unicode="H" horiz-adv-x="644" 
d="M461 309h-278v-309h-106v698h106v-297h278v297h106v-698h-106v309z" />
    <glyph glyph-name="I" unicode="I" horiz-adv-x="377" 
d="M50 0v85h85v528h-85v85h276v-85h-85v-528h85v-85h-276z" />
    <glyph glyph-name="J" unicode="J" horiz-adv-x="481" 
d="M408 698v-526q0 -87 -51 -135.5t-142 -48.5q-87 0 -133 45.5t-59 124.5l96 22q8 -48 29.5 -73t66.5 -25q41 0 64 24t23 78v425h-203v89h309z" />
    <glyph glyph-name="K" unicode="K" horiz-adv-x="598" 
d="M270 330l-87 -112v-218h-106v698h106v-230l-6 -130h13l89 130l164 230h122l-222 -296l238 -402h-125z" />
    <glyph glyph-name="L" unicode="L" horiz-adv-x="465" 
d="M77 0v698h106v-605h254v-93h-360z" />
    <glyph glyph-name="M" unicode="M" horiz-adv-x="735" 
d="M556 430l7 119h-12l-48 -117l-136 -284l-135 284l-48 115h-12l7 -117v-430h-102v698h125l113 -244l49 -138h9l49 138l112 244h124v-698h-102v430z" />
    <glyph glyph-name="N" unicode="N" horiz-adv-x="645" 
d="M237 419l-53 130h-13l8 -132v-417h-102v698h122l208 -419l54 -130h13l-8 132v417h102v-698h-123z" />
    <glyph glyph-name="O" unicode="O" horiz-adv-x="640" 
d="M320 -12q-63 0 -113 20.5t-85.5 64.5t-54 112.5t-18.5 163.5t18.5 163.5t54 112.5t85.5 64.5t113 20.5t113 -20.5t85.5 -64.5t54 -112.5t18.5 -163.5t-18.5 -163.5t-54 -112.5t-85.5 -64.5t-113 -20.5zM320 82q75 0 116 48.5t41 134.5v168q0 86 -41 134.5t-116 48.5
t-116 -48.5t-41 -134.5v-168q0 -86 41 -134.5t116 -48.5z" />
    <glyph glyph-name="P" unicode="P" horiz-adv-x="568" 
d="M77 0v698h276q90 0 135.5 -53.5t45.5 -154.5t-45.5 -154.5t-135.5 -53.5h-170v-282h-106zM183 376h161q38 0 57.5 19.5t19.5 62.5v64q0 43 -19.5 62.5t-57.5 19.5h-161v-228z" />
    <glyph glyph-name="Q" unicode="Q" horiz-adv-x="640" 
d="M472 -171h-92q-56 0 -80.5 27t-24.5 75v60q-106 13 -166 99t-60 259q0 95 18.5 163.5t54 112.5t85.5 64.5t113 20.5t113 -20.5t85.5 -64.5t54 -112.5t18.5 -163.5q0 -169 -57.5 -254.5t-158.5 -101.5v-76h97v-88zM320 82q75 0 116 48.5t41 134.5v168q0 86 -41 134.5
t-116 48.5t-116 -48.5t-41 -134.5v-168q0 -86 41 -134.5t116 -48.5z" />
    <glyph glyph-name="R" unicode="R" horiz-adv-x="592" 
d="M183 0h-106v698h276q90 0 135.5 -53.5t45.5 -153.5q0 -81 -30 -131t-90 -67l133 -293h-118l-121 285h-125v-285zM344 374q38 0 57.5 19.5t19.5 63.5v65q0 44 -19.5 63.5t-57.5 19.5h-161v-231h161z" />
    <glyph glyph-name="S" unicode="S" horiz-adv-x="538" 
d="M266 -12q-78 0 -135.5 29.5t-98.5 85.5l73 67q31 -43 71 -66t91 -23q124 0 124 114q0 46 -22 70.5t-76 37.5l-57 12q-94 21 -138.5 67.5t-44.5 130.5q0 97 58.5 147t163.5 50q75 0 126.5 -25.5t89.5 -79.5l-73 -64q-27 38 -60.5 57t-84.5 19q-57 0 -85.5 -23.5
t-28.5 -77.5q0 -44 22.5 -66.5t73.5 -34.5l57 -13q50 -11 85 -27.5t57.5 -40.5t32.5 -56.5t10 -75.5q0 -105 -60.5 -159.5t-170.5 -54.5z" />
    <glyph glyph-name="T" unicode="T" horiz-adv-x="521" 
d="M314 605v-605h-106v605h-185v93h476v-93h-185z" />
    <glyph glyph-name="U" unicode="U" horiz-adv-x="619" 
d="M177 698v-452q0 -84 29 -124t103 -40t103 40t29 124v452h106v-435q0 -71 -12.5 -123t-40.5 -86t-73.5 -50t-111.5 -16t-111.5 16t-73.5 50t-40.5 86t-12.5 123v435h106z" />
    <glyph glyph-name="V" unicode="V" horiz-adv-x="570" 
d="M221 0l-205 698h111l124 -439l29 -163h13l29 163l123 439h109l-204 -698h-129z" />
    <glyph glyph-name="W" unicode="W" horiz-adv-x="840" 
d="M170 0l-148 698h108l82 -423l22 -162h13l22 160l88 425h129l89 -425l22 -160h13l22 162l82 423h104l-153 -698h-127l-90 430l-22 161h-12l-22 -161l-94 -430h-128z" />
    <glyph glyph-name="X" unicode="X" horiz-adv-x="578" 
d="M560 0h-123l-146 272h-12l-145 -272h-116l203 356l-194 342h124l135 -255h12l139 255h115l-196 -340z" />
    <glyph glyph-name="Y" unicode="Y" horiz-adv-x="553" 
d="M224 0v270l-216 428h119l145 -312h13l143 312h117l-215 -428v-270h-106z" />
    <glyph glyph-name="Z" unicode="Z" horiz-adv-x="534" 
d="M500 0h-466v95l335 510h-319v93h439v-95l-335 -510h346v-93z" />
    <glyph glyph-name="bracketleft" unicode="[" horiz-adv-x="293" 
d="M77 -138v898h167v-75h-78v-748h78v-75h-167z" />
    <glyph glyph-name="backslash" unicode="\" horiz-adv-x="380" 
d="M287 -151l-252 891h87l252 -891h-87z" />
    <glyph glyph-name="bracketright" unicode="]" horiz-adv-x="293" 
d="M216 760v-898h-167v75h78v748h-78v75h167z" />
    <glyph glyph-name="asciicircum" unicode="^" 
d="M420 295l-146 300h-12l-145 -300l-80 38l182 365h102l182 -365z" />
    <glyph glyph-name="underscore" unicode="_" horiz-adv-x="505" 
d="M27 -174v89h451v-89h-451z" />
    <glyph glyph-name="grave" unicode="`" 
d="M149 749l90 46l84 -182l-63 -31z" />
    <glyph glyph-name="a" unicode="a" horiz-adv-x="497" 
d="M404 0q-38 0 -59 21t-21 66h-12q-11 -47 -45.5 -73t-84.5 -26q-74 0 -110.5 39.5t-36.5 111.5q0 78 50 119t147 41h86v50q0 50 -22 73.5t-70 23.5q-37 0 -63.5 -16t-48.5 -54l-61 56q26 44 70.5 72t109.5 28q94 0 141 -45.5t47 -133.5v-268h49v-85h-66zM216 68
q22 0 40.5 7t32 19t21.5 28.5t8 35.5v72h-81q-97 0 -97 -70v-24q0 -35 20.5 -51.5t55.5 -16.5z" />
    <glyph glyph-name="b" unicode="b" horiz-adv-x="535" 
d="M70 740h103v-305h12q13 46 46.5 71.5t79.5 25.5q93 0 138 -70.5t45 -201.5t-45 -201.5t-138 -70.5q-46 0 -79.5 25.5t-46.5 71.5h-12v-85h-103v740zM274 76q53 0 82 33t29 93v116q0 60 -29 93t-82 33q-44 0 -72.5 -23t-28.5 -63v-196q0 -40 28.5 -63t72.5 -23z" />
    <glyph glyph-name="c" unicode="c" horiz-adv-x="460" 
d="M249 -12q-102 0 -157 65t-55 207t55 207t157 65q75 0 120 -34.5t65 -91.5l-85 -40q-9 39 -32.5 59.5t-67.5 20.5q-103 0 -103 -125v-122q0 -125 103 -125q45 0 70.5 21.5t39.5 63.5l78 -43q-23 -61 -69.5 -94.5t-118.5 -33.5z" />
    <glyph glyph-name="d" unicode="d" horiz-adv-x="535" 
d="M362 85h-12q-13 -46 -46.5 -71.5t-79.5 -25.5q-93 0 -138 70.5t-45 201.5t45 201.5t138 70.5q46 0 79.5 -25.5t46.5 -71.5h12v305h103v-740h-103v85zM261 76q44 0 72.5 23t28.5 63v196q0 40 -28.5 63t-72.5 23q-53 0 -82 -33t-29 -93v-116q0 -60 29 -93t82 -33z" />
    <glyph glyph-name="e" unicode="e" horiz-adv-x="501" 
d="M259 -12q-49 0 -90 16t-70 49.5t-45.5 84.5t-16.5 122t15 122.5t43.5 84.5t68 49t89.5 16q99 0 154.5 -65t55.5 -207v-26h-318v-33q0 -62 31.5 -95t86.5 -33q47 0 77.5 21t51.5 59l60 -57q-28 -49 -75.5 -78.5t-117.5 -29.5zM253 450q-52 0 -80 -31.5t-28 -94.5v-21h209
v21q0 126 -101 126z" />
    <glyph glyph-name="f" unicode="f" horiz-adv-x="314" 
d="M95 435h-72v85h72v99q0 63 28 92t89 29h83v-85h-97v-135h97v-85h-97v-435h-103v435z" />
    <glyph glyph-name="g" unicode="g" horiz-adv-x="486" 
d="M484 -51q0 -41 -13 -71t-42 -50t-74.5 -30t-111.5 -10q-59 0 -100 8.5t-66.5 24.5t-36.5 39.5t-11 53.5q0 40 21.5 63.5t59.5 29.5v17q-28 10 -41.5 30t-13.5 48q0 35 22.5 56.5t60.5 27.5v12q-84 43 -84 156q0 86 47.5 132t141.5 46q46 0 84 -15v17q0 65 62 65h72v-83
h-96v-23q32 -20 49.5 -55.5t17.5 -83.5q0 -86 -47.5 -131.5t-141.5 -45.5q-18 0 -34.5 2t-31.5 5q-20 -6 -30 -20.5t-10 -31.5q0 -20 13.5 -30t44.5 -10h125q89 0 126.5 -37t37.5 -106zM387 -61q0 29 -19 45t-64 16h-160q-30 -21 -30 -62q0 -35 22.5 -54.5t76.5 -19.5h62
q59 0 85.5 18.5t26.5 56.5zM243 252q89 0 89 88v30q0 88 -89 88t-89 -88v-30q0 -88 89 -88z" />
    <glyph glyph-name="h" unicode="h" horiz-adv-x="525" 
d="M70 740h103v-306h12q31 98 128 98q70 0 108.5 -47.5t38.5 -139.5v-345h-103v331q0 55 -21 84t-66 29q-41 0 -69 -24.5t-28 -68.5v-351h-103v740z" />
    <glyph glyph-name="i" unicode="i" horiz-adv-x="244" 
d="M122 619q-62 0 -62 53v18q0 53 62 53t62 -53v-18q0 -53 -62 -53zM71 520h103v-520h-103v520z" />
    <glyph glyph-name="j" unicode="j" horiz-adv-x="245" 
d="M71 520h103v-607q0 -58 -26.5 -85.5t-87.5 -27.5h-62v85h73v635zM122 619q-62 0 -62 53v18q0 53 62 53t62 -53v-18q0 -53 -62 -53z" />
    <glyph glyph-name="k" unicode="k" horiz-adv-x="497" 
d="M70 740h103v-359l-7 -105h11l66 97l114 147h119l-166 -206l177 -314h-118l-132 249l-64 -77v-172h-103v740z" />
    <glyph glyph-name="l" unicode="l" horiz-adv-x="260" 
d="M172 0q-54 0 -78 24.5t-24 76.5v639h103v-655h62v-85h-63z" />
    <glyph glyph-name="m" unicode="m" horiz-adv-x="796" 
d="M70 0v520h103v-86h12q31 98 125 98q97 0 129 -100h11q16 51 51 75.5t88 24.5q67 0 104.5 -47.5t37.5 -139.5v-345h-103v331q0 55 -20.5 84t-62.5 29q-38 0 -65.5 -24.5t-27.5 -68.5v-351h-103v331q0 55 -20.5 84t-62.5 29q-39 0 -66 -24.5t-27 -68.5v-351h-103z" />
    <glyph glyph-name="n" unicode="n" horiz-adv-x="525" 
d="M70 0v520h103v-86h12q31 98 128 98q70 0 108.5 -47.5t38.5 -139.5v-345h-103v331q0 55 -21 84t-66 29q-41 0 -69 -24.5t-28 -68.5v-351h-103z" />
    <glyph glyph-name="o" unicode="o" horiz-adv-x="506" 
d="M253 -12q-50 0 -89.5 16t-68 49t-43.5 84.5t-15 122.5t15 122.5t43.5 84.5t68 49t89.5 16q49 0 89 -16t68.5 -49t43.5 -84.5t15 -122.5t-15 -122.5t-43.5 -84.5t-68.5 -49t-89 -16zM253 74q52 0 79.5 31t27.5 94v122q0 63 -27.5 94t-79.5 31t-79.5 -31t-27.5 -94v-122
q0 -63 27.5 -94t79.5 -31z" />
    <glyph glyph-name="p" unicode="p" horiz-adv-x="535" 
d="M70 520h103v-85h12q13 46 46.5 71.5t79.5 25.5q92 0 137.5 -70.5t45.5 -201.5t-45.5 -201.5t-137.5 -70.5q-46 0 -79.5 25.5t-46.5 71.5h-12v-285h-103v720zM274 76q53 0 82 33t29 93v116q0 60 -29 93t-82 33q-44 0 -72.5 -23t-28.5 -63v-196q0 -40 28.5 -63t72.5 -23z
" />
    <glyph glyph-name="q" unicode="q" horiz-adv-x="535" 
d="M362 -200v285h-12q-13 -47 -46.5 -72t-79.5 -25q-92 0 -137.5 70.5t-45.5 201.5t45.5 201.5t137.5 70.5q46 0 79.5 -25.5t46.5 -71.5h12v85h103v-720h-103zM261 76q44 0 72.5 23t28.5 63v196q0 40 -28.5 63t-72.5 23q-53 0 -82 -33t-29 -93v-116q0 -60 29 -93t82 -33z
" />
    <glyph glyph-name="r" unicode="r" horiz-adv-x="347" 
d="M70 0v520h103v-103h12q11 50 41.5 76.5t77.5 26.5h26v-105h-44q-55 0 -84 -21t-29 -67v-327h-103z" />
    <glyph glyph-name="s" unicode="s" horiz-adv-x="446" 
d="M222 -12q-65 0 -112.5 24.5t-82.5 71.5l66 61q26 -37 57 -55.5t73 -18.5q41 0 63 18.5t22 54.5q0 28 -14 45t-51 24l-45 8q-79 14 -116 49t-37 104q0 81 47 119.5t129 38.5q60 0 102.5 -20.5t74.5 -59.5l-62 -61q-21 29 -50.5 43.5t-63.5 14.5q-78 0 -78 -71
q0 -31 16 -46t51 -21l46 -9q81 -14 115.5 -49.5t34.5 -97.5q0 -79 -48 -123t-137 -44z" />
    <glyph glyph-name="t" unicode="t" horiz-adv-x="328" 
d="M198 0q-54 0 -78.5 24t-24.5 78v333h-72v85h40q25 0 33.5 11.5t8.5 36.5v94h93v-142h97v-85h-97v-350h90v-85h-90z" />
    <glyph glyph-name="u" unicode="u" horiz-adv-x="525" 
d="M352 86h-13q-31 -98 -129 -98q-69 0 -107.5 47.5t-38.5 139.5v345h103v-331q0 -113 88 -113q40 0 68.5 24.5t28.5 68.5v351h103v-520h-103v86z" />
    <glyph glyph-name="v" unicode="v" horiz-adv-x="464" 
d="M168 0l-157 520h104l76 -271l37 -160h13l36 160l76 271h101l-157 -520h-129z" />
    <glyph glyph-name="w" unicode="w" horiz-adv-x="723" 
d="M21 520h100l51 -237l32 -190h12l38 190l56 237h108l57 -237l38 -190h11l32 190l53 237h95l-125 -520h-121l-61 253l-28 168h-12l-29 -168l-61 -253h-121z" />
    <glyph glyph-name="x" unicode="x" horiz-adv-x="477" 
d="M16 0l163 265l-159 255h114l102 -176h11l102 176h109l-157 -255l163 -265h-114l-106 186h-12l-107 -186h-109z" />
    <glyph glyph-name="y" unicode="y" horiz-adv-x="470" 
d="M354 520h102l-201 -638q-8 -24 -17.5 -40t-23 -25.5t-32.5 -13t-44 -3.5h-72v85h94l24 87l-173 548h105l78 -273l36 -158h11l36 158z" />
    <glyph glyph-name="z" unicode="z" horiz-adv-x="440" 
d="M33 0v80l249 355h-241v85h360v-80l-251 -355h258v-85h-375z" />
    <glyph glyph-name="braceleft" unicode="{" horiz-adv-x="322" 
d="M180 -138q-36 0 -54.5 17.5t-18.5 57.5v253q0 36 -25 56t-63 20v90q38 0 63 20t25 56v253q0 40 18.5 57.5t53.5 17.5h94v-75h-77v-257q0 -50 -31.5 -80t-85.5 -31v-12q54 -1 85.5 -31t31.5 -80v-257h77v-75h-93z" />
    <glyph glyph-name="bar" unicode="|" horiz-adv-x="323" 
d="M118 -138v898h87v-898h-87z" />
    <glyph glyph-name="braceright" unicode="}" horiz-adv-x="322" 
d="M142 760q36 0 54.5 -17.5t18.5 -57.5v-253q0 -36 25 -56t63 -20v-90q-38 0 -63 -20t-25 -56v-253q0 -40 -18.5 -57.5t-53.5 -17.5h-94v75h77v257q0 50 31.5 80t85.5 31v12q-54 1 -85.5 31t-31.5 80v257h-77v75h93z" />
    <glyph glyph-name="asciitilde" unicode="~" 
d="M375 228q-33 0 -59 9.5t-56 26.5q-25 14 -51 25t-49 11t-38.5 -7.5t-34.5 -22.5l-38 55q17 26 46 42t70 16q33 0 59 -9.5t56 -26.5q25 -14 51 -25t49 -11t38.5 7.5t34.5 22.5l38 -55q-17 -26 -46 -42t-70 -16z" />
    <glyph glyph-name="uni00A0" unicode="&#xa0;" horiz-adv-x="212" 
 />
    <glyph glyph-name="exclamdown" unicode="&#xa1;" horiz-adv-x="272" 
d="M81 -179v201l31 301h48l31 -301v-201h-110zM136 391q-36 0 -53 15.5t-17 43.5v22q0 28 17 43.5t53 15.5t53 -15.5t17 -43.5v-22q0 -28 -17 -43.5t-53 -15.5z" />
    <glyph glyph-name="cent" unicode="&#xa2;" horiz-adv-x="478" 
d="M210 -114v105q-83 12 -128 76.5t-45 190.5t45 190.5t128 76.5v105h79v-104q60 -8 96.5 -39.5t53.5 -80.5l-78 -41q-8 33 -26.5 53.5t-51.5 26.5v-374q34 6 55 27t33 58l74 -47q-20 -51 -58.5 -81t-97.5 -38v-104h-79zM140 197q0 -107 76 -125v372q-76 -18 -76 -125v-122z
" />
    <glyph glyph-name="sterling" unicode="&#xa3;" horiz-adv-x="526" 
d="M67 0v109q35 17 52 48t17 85q0 23 -5 48h-89v88h61q-8 27 -14.5 56.5t-6.5 66.5q0 101 54 155t161 54q73 0 117.5 -28t76.5 -81l-78 -56q-20 35 -46.5 54t-68.5 19q-54 0 -81 -27.5t-27 -98.5q0 -33 5.5 -60t13.5 -54h178v-88h-156q5 -23 5 -44q0 -63 -27 -100t-71 -44
v-11h339v-91h-410z" />
    <glyph glyph-name="yen" unicode="&#xa5;" horiz-adv-x="564" 
d="M334 140v-140h-106v140h-155v73h155v89h-155v73h110l-159 323h120l134 -300h12l134 300h116l-160 -323h109v-73h-155v-89h155v-73h-155z" />
    <glyph glyph-name="brokenbar" unicode="&#xa6;" horiz-adv-x="323" 
d="M118 404v356h87v-356h-87zM118 -138v356h87v-356h-87z" />
    <glyph glyph-name="section" unicode="&#xa7;" horiz-adv-x="519" 
d="M433 6q0 -78 -48 -120.5t-139 -42.5q-101 0 -164 60l53 67q46 -46 113 -46q94 0 94 80q0 33 -19 53t-67 35l-64 20q-71 22 -103.5 58t-32.5 93q0 48 25.5 84t72.5 53v12q-68 44 -68 135q0 78 48 120.5t139 42.5q101 0 164 -60l-53 -67q-46 46 -113 46q-94 0 -94 -80
q0 -33 19 -53t67 -35l64 -20q71 -22 103.5 -58t32.5 -93q0 -48 -25.5 -84t-72.5 -53v-12q68 -44 68 -135zM372 261q0 42 -20 65t-68 37l-62 18q-8 2 -15 4.5t-15 6.5q-45 -45 -45 -99q0 -42 20 -65.5t68 -37.5l62 -18q8 -2 15 -4.5t15 -6.5q45 45 45 100z" />
    <glyph glyph-name="dieresis" unicode="&#xa8;" 
d="M179 612q-32 0 -46.5 13t-14.5 36v21q0 23 14.5 36t46.5 13t46.5 -13t14.5 -36v-21q0 -23 -14.5 -36t-46.5 -13zM361 612q-32 0 -46.5 13t-14.5 36v21q0 23 14.5 36t46.5 13t46.5 -13t14.5 -36v-21q0 -23 -14.5 -36t-46.5 -13z" />
    <glyph glyph-name="copyright" unicode="&#xa9;" horiz-adv-x="706" 
d="M353 -12q-68 0 -125.5 23.5t-99 69t-65 113t-23.5 155.5t23.5 155t65 113t99 69.5t125.5 23.5t125.5 -23.5t99 -69.5t65 -113t23.5 -155t-23.5 -155.5t-65 -113t-99 -69t-125.5 -23.5zM353 45q55 0 100 20t77.5 55t50 84t17.5 106v78q0 57 -17.5 106t-50 84t-77.5 55
t-100 20t-100 -20t-77.5 -55t-50 -84t-17.5 -106v-78q0 -57 17.5 -106t50 -84t77.5 -55t100 -20zM360 146q-170 0 -170 203t170 203q103 0 142 -95l-71 -37q-12 30 -28.5 43.5t-42.5 13.5q-36 0 -54.5 -22t-18.5 -62v-88q0 -40 18.5 -62t54.5 -22q52 0 78 59l70 -38
q-41 -96 -148 -96z" />
    <glyph glyph-name="ordfeminine" unicode="&#xaa;" horiz-adv-x="382" 
d="M230 408q-8 -30 -32 -47.5t-60 -17.5q-48 0 -73.5 26.5t-25.5 74.5q0 57 35 82.5t104 25.5h57v32q0 36 -14.5 51.5t-47.5 15.5q-29 0 -48.5 -13t-30.5 -36l-45 40q41 68 131 68q64 0 97.5 -30.5t33.5 -93.5v-172h34v-63h-49q-25 0 -40.5 14t-16.5 43h-9zM179 502
q-66 0 -66 -42v-19q0 -41 51 -41q29 0 50 15.5t21 44.5v42h-56z" />
    <glyph glyph-name="guillemotleft" unicode="&#xab;" horiz-adv-x="482" 
d="M204 87l-170 147v92l170 147l32 -68l-112 -119v-11l112 -120zM406 87l-170 147v92l170 147l32 -68l-112 -119v-11l112 -120z" />
    <glyph glyph-name="logicalnot" unicode="&#xac;" 
d="M390 78v186h-332v84h424v-270h-92z" />
    <glyph glyph-name="uni00AD" unicode="&#xad;" horiz-adv-x="360" 
d="M54 252v105h252v-105h-252z" />
    <glyph glyph-name="registered" unicode="&#xae;" horiz-adv-x="424" 
d="M212 298q-39 0 -73 13.5t-58.5 39.5t-38.5 64.5t-14 88.5t14 88.5t38.5 64.5t58.5 39.5t73 13.5t73 -13.5t58.5 -39.5t38.5 -64.5t14 -88.5t-14 -88.5t-38.5 -64.5t-58.5 -39.5t-73 -13.5zM212 337q64 0 100 40t36 103v48q0 63 -36 103t-100 40t-100 -40t-36 -103v-48
q0 -63 36 -103t100 -40zM184 400h-47v208h90q64 0 64 -67q0 -50 -33 -62l41 -79h-52l-34 73h-29v-73zM222 511q21 0 21 20v19q0 20 -21 20h-38v-59h38z" />
    <glyph glyph-name="macron" unicode="&#xaf;" 
d="M138 713h264v-80h-264v80z" />
    <glyph glyph-name="degree" unicode="&#xb0;" horiz-adv-x="422" 
d="M211 370q-35 0 -65 12t-52 34t-35 53.5t-13 70.5t13 70.5t35 53.5t52 34t65 12q34 0 64.5 -12t52.5 -34t35 -53.5t13 -70.5t-13 -70.5t-35 -53.5t-52.5 -34t-64.5 -12zM211 442q38 0 62 25.5t24 72.5t-24 72.5t-62 25.5t-62 -25.5t-24 -72.5t24 -72.5t62 -25.5z" />
    <glyph glyph-name="plusminus" unicode="&#xb1;" 
d="M224 184v168h-166v82h166v168h92v-168h166v-82h-166v-168h-92zM58 0v80h424v-80h-424z" />
    <glyph glyph-name="twosuperior" unicode="&#xb2;" horiz-adv-x="320" 
d="M289 329h-254v67l108 96q33 30 45.5 49.5t12.5 42.5v13q0 21 -13.5 33t-36.5 12q-24 0 -38.5 -12.5t-23.5 -41.5l-62 24q30 91 130 91q122 0 122 -109q0 -20 -5 -37.5t-16 -34.5t-28.5 -34.5t-43.5 -38.5l-74 -60h177v-60z" />
    <glyph glyph-name="threesuperior" unicode="&#xb3;" horiz-adv-x="320" 
d="M150 549q23 0 36 11t13 30v12q0 19 -13 30t-36 11t-39.5 -9.5t-30.5 -32.5l-48 42q24 32 52.5 46.5t68.5 14.5q124 0 124 -97q0 -34 -18.5 -55.5t-51.5 -27.5v-8q36 -4 56 -26t20 -58q0 -54 -33.5 -81.5t-98.5 -27.5q-45 0 -75.5 16t-55.5 52l55 42q14 -27 31.5 -38
t43.5 -11q55 0 55 43v19q0 43 -55 43h-39v60h39z" />
    <glyph glyph-name="acute" unicode="&#xb4;" 
d="M280 582l-63 31l84 182l90 -46z" />
    <glyph glyph-name="mu" unicode="&#xb5;" horiz-adv-x="530" 
d="M67 -200v720h103v-331q0 -113 88 -113q40 0 68.5 24.5t28.5 68.5v351h103v-520h-103v86h-12q-11 -48 -36 -73t-69 -25q-28 0 -49.5 12.5t-29.5 35.5h-13l24 -102v-134h-103z" />
    <glyph glyph-name="paragraph" unicode="&#xb6;" horiz-adv-x="597" 
d="M218 286q-41 0 -74.5 15t-57 42t-36.5 65t-13 84t13 84t36.5 65t57 42t74.5 15h318v-78h-57v-769h-83v769h-95v-769h-83v435z" />
    <glyph glyph-name="periodcentered" unicode="&#xb7;" horiz-adv-x="308" 
d="M154 234q-35 0 -52 15.5t-17 44.5v20q0 29 17 44.5t52 15.5t52 -15.5t17 -44.5v-20q0 -29 -17 -44.5t-52 -15.5z" />
    <glyph glyph-name="cedilla" unicode="&#xb8;" 
d="M282 -208q-71 0 -102 42l37 44q25 -26 59 -26q23 0 32.5 7.5t9.5 24.5t-9.5 24.5t-32.5 7.5h-48l19 103h53l-17 -88h9q13 18 38 18q61 0 61 -71q0 -42 -28 -64t-81 -22z" />
    <glyph glyph-name="onesuperior" unicode="&#xb9;" horiz-adv-x="320" 
d="M49 329v60h91v242l-83 -48l-28 52l106 63h79v-309h80v-60h-245z" />
    <glyph glyph-name="ordmasculine" unicode="&#xba;" horiz-adv-x="374" 
d="M187 342q-70 0 -110 43.5t-40 140.5t40 140.5t110 43.5t110 -43.5t40 -140.5t-40 -140.5t-110 -43.5zM187 403q71 0 71 79v88q0 79 -71 79t-71 -79v-88q0 -79 71 -79z" />
    <glyph glyph-name="guillemotright" unicode="&#xbb;" horiz-adv-x="482" 
d="M76 473l170 -147v-92l-170 -147l-32 68l112 119v11l-112 120zM278 473l170 -147v-92l-170 -147l-32 68l112 119v11l-112 120z" />
    <glyph glyph-name="onequarter" unicode="&#xbc;" horiz-adv-x="740" 
d="M49 329v60h91v242l-83 -48l-28 52l106 63h79v-309h80v-60h-245zM388 434l172 264h78l-172 -264h-78zM102 0l168 254h79l-169 -254h-78zM601 0v71h-162v62l136 236h96v-242h46v-56h-46v-71h-70zM601 295h-8l-94 -168h102v168z" />
    <glyph glyph-name="onehalf" unicode="&#xbd;" horiz-adv-x="740" 
d="M49 329v60h91v242l-83 -48l-28 52l106 63h79v-309h80v-60h-245zM388 434l172 264h78l-172 -264h-78zM102 0l168 254h79l-169 -254h-78zM709 0h-254v67l108 96q33 30 45.5 49.5t12.5 42.5v13q0 21 -13.5 33t-36.5 12q-24 0 -38.5 -12.5t-23.5 -41.5l-62 24q30 91 130 91
q122 0 122 -109q0 -20 -5 -37.5t-16 -34.5t-28.5 -34.5t-43.5 -38.5l-74 -60h177v-60z" />
    <glyph glyph-name="threequarters" unicode="&#xbe;" horiz-adv-x="740" 
d="M150 549q23 0 36 11t13 30v12q0 19 -13 30t-36 11t-39.5 -9.5t-30.5 -32.5l-48 42q24 32 52.5 46.5t68.5 14.5q124 0 124 -97q0 -34 -18.5 -55.5t-51.5 -27.5v-8q36 -4 56 -26t20 -58q0 -54 -33.5 -81.5t-98.5 -27.5q-45 0 -75.5 16t-55.5 52l55 42q14 -27 31.5 -38
t43.5 -11q55 0 55 43v19q0 43 -55 43h-39v60h39zM388 434l172 264h78l-172 -264h-78zM102 0l168 254h79l-169 -254h-78zM601 0v71h-162v62l136 236h96v-242h46v-56h-46v-71h-70zM601 295h-8l-94 -168h102v168z" />
    <glyph glyph-name="questiondown" unicode="&#xbf;" horiz-adv-x="433" 
d="M224 -191q-94 0 -144.5 51t-50.5 142q0 81 43 135.5t118 69.5v96h99v-161q-74 -3 -112.5 -34t-38.5 -92v-18q0 -47 24 -72.5t66 -25.5q41 0 68.5 27.5t38.5 78.5l88 -35q-20 -79 -71 -120.5t-128 -41.5zM240 391q-36 0 -53 15.5t-17 43.5v22q0 28 17 43.5t53 15.5
t53 -15.5t17 -43.5v-22q0 -28 -17 -43.5t-53 -15.5z" />
    <glyph glyph-name="Agrave" unicode="&#xc0;" horiz-adv-x="596" 
d="M468 0l-54 193h-235l-54 -193h-104l209 698h135l210 -698h-107zM324 500l-22 102h-13l-22 -102l-62 -220h184zM178 916l90 46l84 -182l-63 -31z" />
    <glyph glyph-name="Aacute" unicode="&#xc1;" horiz-adv-x="596" 
d="M468 0l-54 193h-235l-54 -193h-104l209 698h135l210 -698h-107zM324 500l-22 102h-13l-22 -102l-62 -220h184zM309 749l-63 31l84 182l90 -46z" />
    <glyph glyph-name="Acircumflex" unicode="&#xc2;" horiz-adv-x="596" 
d="M468 0l-54 193h-235l-54 -193h-104l209 698h135l210 -698h-107zM324 500l-22 102h-13l-22 -102l-62 -220h184zM349 944l113 -151l-53 -41l-110 118l-110 -118l-53 41l113 151h100z" />
    <glyph glyph-name="Atilde" unicode="&#xc3;" horiz-adv-x="596" 
d="M468 0l-54 193h-235l-54 -193h-104l209 698h135l210 -698h-107zM324 500l-22 102h-13l-22 -102l-62 -220h184zM368 775q-17 0 -32.5 4.5t-41.5 19.5q-25 14 -39.5 19.5t-25.5 5.5q-17 0 -28 -7t-25 -20l-38 49q17 26 40 40.5t52 14.5q17 0 32.5 -4.5t41.5 -19.5
q25 -14 39.5 -19.5t25.5 -5.5q17 0 28 7t25 20l38 -49q-17 -26 -40 -40.5t-52 -14.5z" />
    <glyph glyph-name="Adieresis" unicode="&#xc4;" horiz-adv-x="596" 
d="M468 0l-54 193h-235l-54 -193h-104l209 698h135l210 -698h-107zM324 500l-22 102h-13l-22 -102l-62 -220h184zM208 780q-32 0 -46.5 13t-14.5 36v21q0 23 14.5 36t46.5 13t46.5 -13t14.5 -36v-21q0 -23 -14.5 -36t-46.5 -13zM390 780q-32 0 -46.5 13t-14.5 36v21
q0 23 14.5 36t46.5 13t46.5 -13t14.5 -36v-21q0 -23 -14.5 -36t-46.5 -13z" />
    <glyph glyph-name="Aring" unicode="&#xc5;" horiz-adv-x="596" 
d="M468 0l-54 193h-235l-54 -193h-104l209 698h135l210 -698h-107zM324 500l-22 102h-13l-22 -102l-62 -220h184zM299 734q-58 0 -91 35t-33 92t33 92t91 35t91 -35t33 -92t-33 -92t-91 -35zM299 792q24 0 38.5 12t14.5 36v43q0 24 -14.5 36t-38.5 12t-38.5 -12t-14.5 -36
v-43q0 -24 14.5 -36t38.5 -12z" />
    <glyph glyph-name="AE" unicode="&#xc6;" horiz-adv-x="843" 
d="M385 192h-192l-83 -192h-108l310 698h478v-93h-299v-204h270v-92h-270v-216h299v-93h-405v192zM370 605l-140 -326h155v326h-15z" />
    <glyph glyph-name="Ccedilla" unicode="&#xc7;" horiz-adv-x="573" 
d="M314 -208q-71 0 -102 42l37 44q25 -26 59 -26q23 0 32.5 7.5t9.5 24.5t-9.5 24.5t-32.5 7.5h-48l14 74q-52 6 -93.5 30.5t-71 68t-45 108.5t-15.5 152q0 95 18.5 163.5t53 112.5t83 64.5t109.5 20.5q89 0 142.5 -38.5t85.5 -115.5l-90 -50q-18 59 -50.5 85t-87.5 26
q-71 0 -110.5 -49t-39.5 -135v-168q0 -86 39.5 -135t110.5 -49q56 0 90.5 28t53.5 90l88 -52q-32 -74 -83.5 -115t-135.5 -44l-11 -57h9q13 18 38 18q61 0 61 -71q0 -42 -28 -64t-81 -22z" />
    <glyph glyph-name="Egrave" unicode="&#xc8;" horiz-adv-x="536" 
d="M77 0v698h405v-93h-299v-204h270v-92h-270v-216h299v-93h-405zM157 916l90 46l84 -182l-63 -31z" />
    <glyph glyph-name="Eacute" unicode="&#xc9;" horiz-adv-x="536" 
d="M77 0v698h405v-93h-299v-204h270v-92h-270v-216h299v-93h-405zM288 749l-63 31l84 182l90 -46z" />
    <glyph glyph-name="Ecircumflex" unicode="&#xca;" horiz-adv-x="536" 
d="M77 0v698h405v-93h-299v-204h270v-92h-270v-216h299v-93h-405zM328 944l113 -151l-53 -41l-110 118l-110 -118l-53 41l113 151h100z" />
    <glyph glyph-name="Edieresis" unicode="&#xcb;" horiz-adv-x="536" 
d="M77 0v698h405v-93h-299v-204h270v-92h-270v-216h299v-93h-405zM187 780q-32 0 -46.5 13t-14.5 36v21q0 23 14.5 36t46.5 13t46.5 -13t14.5 -36v-21q0 -23 -14.5 -36t-46.5 -13zM369 780q-32 0 -46.5 13t-14.5 36v21q0 23 14.5 36t46.5 13t46.5 -13t14.5 -36v-21
q0 -23 -14.5 -36t-46.5 -13z" />
    <glyph glyph-name="Igrave" unicode="&#xcc;" horiz-adv-x="377" 
d="M50 0v85h85v528h-85v85h276v-85h-85v-528h85v-85h-276zM69 916l90 46l84 -182l-63 -31z" />
    <glyph glyph-name="Iacute" unicode="&#xcd;" horiz-adv-x="377" 
d="M50 0v85h85v528h-85v85h276v-85h-85v-528h85v-85h-276zM200 749l-63 31l84 182l90 -46z" />
    <glyph glyph-name="Icircumflex" unicode="&#xce;" horiz-adv-x="377" 
d="M50 0v85h85v528h-85v85h276v-85h-85v-528h85v-85h-276zM240 944l113 -151l-53 -41l-110 118l-110 -118l-53 41l113 151h100z" />
    <glyph glyph-name="Idieresis" unicode="&#xcf;" horiz-adv-x="377" 
d="M50 0v85h85v528h-85v85h276v-85h-85v-528h85v-85h-276zM99 780q-32 0 -46.5 13t-14.5 36v21q0 23 14.5 36t46.5 13t46.5 -13t14.5 -36v-21q0 -23 -14.5 -36t-46.5 -13zM281 780q-32 0 -46.5 13t-14.5 36v21q0 23 14.5 36t46.5 13t46.5 -13t14.5 -36v-21q0 -23 -14.5 -36
t-46.5 -13z" />
    <glyph glyph-name="Eth" unicode="&#xd0;" horiz-adv-x="623" 
d="M83 321h-65v81h65v296h230q62 0 110.5 -20t82 -62.5t51 -108.5t17.5 -158t-17.5 -158t-51 -108.5t-82 -62.5t-110.5 -20h-230v321zM313 93q69 0 108 44.5t39 130.5v162q0 86 -39 130.5t-108 44.5h-124v-203h116v-81h-116v-228h124z" />
    <glyph glyph-name="Ntilde" unicode="&#xd1;" horiz-adv-x="645" 
d="M237 419l-53 130h-13l8 -132v-417h-102v698h122l208 -419l54 -130h13l-8 132v417h102v-698h-123zM391 775q-17 0 -32.5 4.5t-41.5 19.5q-25 14 -39.5 19.5t-25.5 5.5q-17 0 -28 -7t-25 -20l-38 49q17 26 40 40.5t52 14.5q17 0 32.5 -4.5t41.5 -19.5q25 -14 39.5 -19.5
t25.5 -5.5q17 0 28 7t25 20l38 -49q-17 -26 -40 -40.5t-52 -14.5z" />
    <glyph glyph-name="Ograve" unicode="&#xd2;" horiz-adv-x="640" 
d="M320 -12q-63 0 -113 20.5t-85.5 64.5t-54 112.5t-18.5 163.5t18.5 163.5t54 112.5t85.5 64.5t113 20.5t113 -20.5t85.5 -64.5t54 -112.5t18.5 -163.5t-18.5 -163.5t-54 -112.5t-85.5 -64.5t-113 -20.5zM320 82q75 0 116 48.5t41 134.5v168q0 86 -41 134.5t-116 48.5
t-116 -48.5t-41 -134.5v-168q0 -86 41 -134.5t116 -48.5zM199 916l90 46l84 -182l-63 -31z" />
    <glyph glyph-name="Oacute" unicode="&#xd3;" horiz-adv-x="640" 
d="M320 -12q-63 0 -113 20.5t-85.5 64.5t-54 112.5t-18.5 163.5t18.5 163.5t54 112.5t85.5 64.5t113 20.5t113 -20.5t85.5 -64.5t54 -112.5t18.5 -163.5t-18.5 -163.5t-54 -112.5t-85.5 -64.5t-113 -20.5zM320 82q75 0 116 48.5t41 134.5v168q0 86 -41 134.5t-116 48.5
t-116 -48.5t-41 -134.5v-168q0 -86 41 -134.5t116 -48.5zM330 749l-63 31l84 182l90 -46z" />
    <glyph glyph-name="Ocircumflex" unicode="&#xd4;" horiz-adv-x="640" 
d="M320 -12q-63 0 -113 20.5t-85.5 64.5t-54 112.5t-18.5 163.5t18.5 163.5t54 112.5t85.5 64.5t113 20.5t113 -20.5t85.5 -64.5t54 -112.5t18.5 -163.5t-18.5 -163.5t-54 -112.5t-85.5 -64.5t-113 -20.5zM320 82q75 0 116 48.5t41 134.5v168q0 86 -41 134.5t-116 48.5
t-116 -48.5t-41 -134.5v-168q0 -86 41 -134.5t116 -48.5zM370 944l113 -151l-53 -41l-110 118l-110 -118l-53 41l113 151h100z" />
    <glyph glyph-name="Otilde" unicode="&#xd5;" horiz-adv-x="640" 
d="M320 -12q-63 0 -113 20.5t-85.5 64.5t-54 112.5t-18.5 163.5t18.5 163.5t54 112.5t85.5 64.5t113 20.5t113 -20.5t85.5 -64.5t54 -112.5t18.5 -163.5t-18.5 -163.5t-54 -112.5t-85.5 -64.5t-113 -20.5zM320 82q75 0 116 48.5t41 134.5v168q0 86 -41 134.5t-116 48.5
t-116 -48.5t-41 -134.5v-168q0 -86 41 -134.5t116 -48.5zM389 775q-17 0 -32.5 4.5t-41.5 19.5q-25 14 -39.5 19.5t-25.5 5.5q-17 0 -28 -7t-25 -20l-38 49q17 26 40 40.5t52 14.5q17 0 32.5 -4.5t41.5 -19.5q25 -14 39.5 -19.5t25.5 -5.5q17 0 28 7t25 20l38 -49
q-17 -26 -40 -40.5t-52 -14.5z" />
    <glyph glyph-name="Odieresis" unicode="&#xd6;" horiz-adv-x="640" 
d="M320 -12q-63 0 -113 20.5t-85.5 64.5t-54 112.5t-18.5 163.5t18.5 163.5t54 112.5t85.5 64.5t113 20.5t113 -20.5t85.5 -64.5t54 -112.5t18.5 -163.5t-18.5 -163.5t-54 -112.5t-85.5 -64.5t-113 -20.5zM320 82q75 0 116 48.5t41 134.5v168q0 86 -41 134.5t-116 48.5
t-116 -48.5t-41 -134.5v-168q0 -86 41 -134.5t116 -48.5zM229 780q-32 0 -46.5 13t-14.5 36v21q0 23 14.5 36t46.5 13t46.5 -13t14.5 -36v-21q0 -23 -14.5 -36t-46.5 -13zM411 780q-32 0 -46.5 13t-14.5 36v21q0 23 14.5 36t46.5 13t46.5 -13t14.5 -36v-21q0 -23 -14.5 -36
t-46.5 -13z" />
    <glyph glyph-name="multiply" unicode="&#xd7;" 
d="M271 248l-140 -141l-59 59l141 140l-141 141l59 58l140 -140l141 140l58 -58l-140 -141l140 -140l-58 -59z" />
    <glyph glyph-name="Oslash" unicode="&#xd8;" horiz-adv-x="640" 
d="M320 -12q-89 0 -149 41l-47 -77l-68 44l55 90q-30 45 -46 109.5t-16 153.5q0 95 18.5 163.5t54 112.5t85.5 64.5t113 20.5q89 0 149 -41l47 77l68 -44l-55 -90q30 -45 46 -109.5t16 -153.5q0 -95 -18.5 -163.5t-54 -112.5t-85.5 -64.5t-113 -20.5zM175 172l142 241
l107 172q-42 34 -104 34q-78 0 -119 -48.5t-41 -136.5v-161l2 -101h13zM216 113q42 -34 104 -34q78 0 119 48.5t41 136.5v162l-2 100h-13l-142 -241z" />
    <glyph glyph-name="Ugrave" unicode="&#xd9;" horiz-adv-x="619" 
d="M177 698v-452q0 -84 29 -124t103 -40t103 40t29 124v452h106v-435q0 -71 -12.5 -123t-40.5 -86t-73.5 -50t-111.5 -16t-111.5 16t-73.5 50t-40.5 86t-12.5 123v435h106zM188 916l90 46l84 -182l-63 -31z" />
    <glyph glyph-name="Uacute" unicode="&#xda;" horiz-adv-x="619" 
d="M177 698v-452q0 -84 29 -124t103 -40t103 40t29 124v452h106v-435q0 -71 -12.5 -123t-40.5 -86t-73.5 -50t-111.5 -16t-111.5 16t-73.5 50t-40.5 86t-12.5 123v435h106zM319 749l-63 31l84 182l90 -46z" />
    <glyph glyph-name="Ucircumflex" unicode="&#xdb;" horiz-adv-x="619" 
d="M177 698v-452q0 -84 29 -124t103 -40t103 40t29 124v452h106v-435q0 -71 -12.5 -123t-40.5 -86t-73.5 -50t-111.5 -16t-111.5 16t-73.5 50t-40.5 86t-12.5 123v435h106zM359 944l113 -151l-53 -41l-110 118l-110 -118l-53 41l113 151h100z" />
    <glyph glyph-name="Udieresis" unicode="&#xdc;" horiz-adv-x="619" 
d="M177 698v-452q0 -84 29 -124t103 -40t103 40t29 124v452h106v-435q0 -71 -12.5 -123t-40.5 -86t-73.5 -50t-111.5 -16t-111.5 16t-73.5 50t-40.5 86t-12.5 123v435h106zM218 780q-32 0 -46.5 13t-14.5 36v21q0 23 14.5 36t46.5 13t46.5 -13t14.5 -36v-21q0 -23 -14.5 -36
t-46.5 -13zM400 780q-32 0 -46.5 13t-14.5 36v21q0 23 14.5 36t46.5 13t46.5 -13t14.5 -36v-21q0 -23 -14.5 -36t-46.5 -13z" />
    <glyph glyph-name="Yacute" unicode="&#xdd;" horiz-adv-x="553" 
d="M224 0v270l-216 428h119l145 -312h13l143 312h117l-215 -428v-270h-106zM288 749l-63 31l84 182l90 -46z" />
    <glyph glyph-name="Thorn" unicode="&#xde;" horiz-adv-x="568" 
d="M77 0v698h106v-135h170q90 0 135.5 -54t45.5 -154t-45.5 -154t-135.5 -54h-170v-147h-106zM183 240h161q38 0 57.5 19.5t19.5 63.5v64q0 44 -19.5 63.5t-57.5 19.5h-161v-230z" />
    <glyph glyph-name="germandbls" unicode="&#xdf;" horiz-adv-x="600" 
d="M579 157q0 -81 -44 -125t-125 -44q-57 0 -97.5 21t-67.5 59l61 59q42 -57 106 -57q71 0 71 74q0 29 -15.5 46.5t-48.5 29.5l-27 9q-60 21 -88.5 54t-28.5 94q0 65 36.5 103t107.5 42v14q0 72 -25 101t-86 29t-86 -29t-25 -101v-536h-103v435h-71v85h71v20
q0 103 53.5 157.5t157.5 54.5t157.5 -54.5t53.5 -157.5v-90h-66q-40 0 -59.5 -15.5t-19.5 -51.5q0 -31 15 -45.5t50 -26.5l26 -10q61 -23 89 -55t28 -89z" />
    <glyph glyph-name="agrave" unicode="&#xe0;" horiz-adv-x="497" 
d="M404 0q-38 0 -59 21t-21 66h-12q-11 -47 -45.5 -73t-84.5 -26q-74 0 -110.5 39.5t-36.5 111.5q0 78 50 119t147 41h86v50q0 50 -22 73.5t-70 23.5q-37 0 -63.5 -16t-48.5 -54l-61 56q26 44 70.5 72t109.5 28q94 0 141 -45.5t47 -133.5v-268h49v-85h-66zM216 68
q22 0 40.5 7t32 19t21.5 28.5t8 35.5v72h-81q-97 0 -97 -70v-24q0 -35 20.5 -51.5t55.5 -16.5zM115 749l90 46l84 -182l-63 -31z" />
    <glyph glyph-name="aacute" unicode="&#xe1;" horiz-adv-x="497" 
d="M404 0q-38 0 -59 21t-21 66h-12q-11 -47 -45.5 -73t-84.5 -26q-74 0 -110.5 39.5t-36.5 111.5q0 78 50 119t147 41h86v50q0 50 -22 73.5t-70 23.5q-37 0 -63.5 -16t-48.5 -54l-61 56q26 44 70.5 72t109.5 28q94 0 141 -45.5t47 -133.5v-268h49v-85h-66zM216 68
q22 0 40.5 7t32 19t21.5 28.5t8 35.5v72h-81q-97 0 -97 -70v-24q0 -35 20.5 -51.5t55.5 -16.5zM246 582l-63 31l84 182l90 -46z" />
    <glyph glyph-name="acircumflex" unicode="&#xe2;" horiz-adv-x="497" 
d="M404 0q-38 0 -59 21t-21 66h-12q-11 -47 -45.5 -73t-84.5 -26q-74 0 -110.5 39.5t-36.5 111.5q0 78 50 119t147 41h86v50q0 50 -22 73.5t-70 23.5q-37 0 -63.5 -16t-48.5 -54l-61 56q26 44 70.5 72t109.5 28q94 0 141 -45.5t47 -133.5v-268h49v-85h-66zM216 68
q22 0 40.5 7t32 19t21.5 28.5t8 35.5v72h-81q-97 0 -97 -70v-24q0 -35 20.5 -51.5t55.5 -16.5zM286 778l113 -151l-53 -41l-110 118l-110 -118l-53 41l113 151h100z" />
    <glyph glyph-name="atilde" unicode="&#xe3;" horiz-adv-x="497" 
d="M404 0q-38 0 -59 21t-21 66h-12q-11 -47 -45.5 -73t-84.5 -26q-74 0 -110.5 39.5t-36.5 111.5q0 78 50 119t147 41h86v50q0 50 -22 73.5t-70 23.5q-37 0 -63.5 -16t-48.5 -54l-61 56q26 44 70.5 72t109.5 28q94 0 141 -45.5t47 -133.5v-268h49v-85h-66zM216 68
q22 0 40.5 7t32 19t21.5 28.5t8 35.5v72h-81q-97 0 -97 -70v-24q0 -35 20.5 -51.5t55.5 -16.5zM305 609q-17 0 -32.5 4.5t-41.5 19.5q-25 14 -39.5 19.5t-25.5 5.5q-17 0 -28 -7t-25 -20l-38 49q17 26 40 40.5t52 14.5q17 0 32.5 -4.5t41.5 -19.5q25 -14 39.5 -19.5
t25.5 -5.5q17 0 28 7t25 20l38 -49q-17 -26 -40 -40.5t-52 -14.5z" />
    <glyph glyph-name="adieresis" unicode="&#xe4;" horiz-adv-x="497" 
d="M404 0q-38 0 -59 21t-21 66h-12q-11 -47 -45.5 -73t-84.5 -26q-74 0 -110.5 39.5t-36.5 111.5q0 78 50 119t147 41h86v50q0 50 -22 73.5t-70 23.5q-37 0 -63.5 -16t-48.5 -54l-61 56q26 44 70.5 72t109.5 28q94 0 141 -45.5t47 -133.5v-268h49v-85h-66zM216 68
q22 0 40.5 7t32 19t21.5 28.5t8 35.5v72h-81q-97 0 -97 -70v-24q0 -35 20.5 -51.5t55.5 -16.5zM145 612q-32 0 -46.5 13t-14.5 36v21q0 23 14.5 36t46.5 13t46.5 -13t14.5 -36v-21q0 -23 -14.5 -36t-46.5 -13zM327 612q-32 0 -46.5 13t-14.5 36v21q0 23 14.5 36t46.5 13
t46.5 -13t14.5 -36v-21q0 -23 -14.5 -36t-46.5 -13z" />
    <glyph glyph-name="aring" unicode="&#xe5;" horiz-adv-x="497" 
d="M404 0q-38 0 -59 21t-21 66h-12q-11 -47 -45.5 -73t-84.5 -26q-74 0 -110.5 39.5t-36.5 111.5q0 78 50 119t147 41h86v50q0 50 -22 73.5t-70 23.5q-37 0 -63.5 -16t-48.5 -54l-61 56q26 44 70.5 72t109.5 28q94 0 141 -45.5t47 -133.5v-268h49v-85h-66zM216 68
q22 0 40.5 7t32 19t21.5 28.5t8 35.5v72h-81q-97 0 -97 -70v-24q0 -35 20.5 -51.5t55.5 -16.5zM236 568q-58 0 -91 35t-33 92t33 92t91 35t91 -35t33 -92t-33 -92t-91 -35zM236 626q24 0 38.5 12t14.5 36v43q0 24 -14.5 36t-38.5 12t-38.5 -12t-14.5 -36v-43q0 -24 14.5 -36
t38.5 -12z" />
    <glyph glyph-name="ae" unicode="&#xe6;" horiz-adv-x="783" 
d="M237 233q-50 0 -73.5 -19.5t-23.5 -53.5v-24q0 -35 20.5 -51.5t55.5 -16.5q22 0 41 7t33.5 19t23 28.5t8.5 35.5v75h-85zM636 301v23q0 126 -101 126q-52 0 -80 -31.5t-28 -94.5v-23h209zM545 73q47 0 77.5 21t51.5 59l60 -57q-28 -49 -75.5 -78.5t-117.5 -29.5
q-29 0 -56 8t-49 22.5t-38 35t-22 46.5h-12q-13 -50 -61 -81t-120 -31q-75 0 -111.5 39.5t-36.5 111.5q0 78 50 120t147 42h90v48q0 97 -96 97q-37 0 -63.5 -16t-48.5 -54l-61 56q26 44 70.5 72t109.5 28q52 0 90.5 -27.5t47.5 -84.5h12q11 53 53.5 82.5t98.5 29.5
q99 0 154.5 -65t55.5 -207v-27h-318v-32q0 -62 31.5 -95t86.5 -33z" />
    <glyph glyph-name="ccedilla" unicode="&#xe7;" horiz-adv-x="460" 
d="M254 -208q-71 0 -102 42l37 44q25 -26 59 -26q23 0 32.5 7.5t9.5 24.5t-9.5 24.5t-32.5 7.5h-48l14 74q-86 11 -131.5 75.5t-45.5 194.5q0 142 55 207t157 65q75 0 120 -34.5t65 -91.5l-85 -40q-9 39 -32.5 59.5t-67.5 20.5q-103 0 -103 -125v-122q0 -125 103 -125
q45 0 70.5 21.5t39.5 63.5l78 -43q-21 -57 -63.5 -90t-107.5 -37l-11 -58h9q13 18 38 18q61 0 61 -71q0 -42 -28 -64t-81 -22z" />
    <glyph glyph-name="egrave" unicode="&#xe8;" horiz-adv-x="501" 
d="M259 -12q-49 0 -90 16t-70 49.5t-45.5 84.5t-16.5 122t15 122.5t43.5 84.5t68 49t89.5 16q99 0 154.5 -65t55.5 -207v-26h-318v-33q0 -62 31.5 -95t86.5 -33q47 0 77.5 21t51.5 59l60 -57q-28 -49 -75.5 -78.5t-117.5 -29.5zM253 450q-52 0 -80 -31.5t-28 -94.5v-21h209
v21q0 126 -101 126zM133 749l90 46l84 -182l-63 -31z" />
    <glyph glyph-name="eacute" unicode="&#xe9;" horiz-adv-x="501" 
d="M259 -12q-49 0 -90 16t-70 49.5t-45.5 84.5t-16.5 122t15 122.5t43.5 84.5t68 49t89.5 16q99 0 154.5 -65t55.5 -207v-26h-318v-33q0 -62 31.5 -95t86.5 -33q47 0 77.5 21t51.5 59l60 -57q-28 -49 -75.5 -78.5t-117.5 -29.5zM253 450q-52 0 -80 -31.5t-28 -94.5v-21h209
v21q0 126 -101 126zM264 582l-63 31l84 182l90 -46z" />
    <glyph glyph-name="ecircumflex" unicode="&#xea;" horiz-adv-x="501" 
d="M259 -12q-49 0 -90 16t-70 49.5t-45.5 84.5t-16.5 122t15 122.5t43.5 84.5t68 49t89.5 16q99 0 154.5 -65t55.5 -207v-26h-318v-33q0 -62 31.5 -95t86.5 -33q47 0 77.5 21t51.5 59l60 -57q-28 -49 -75.5 -78.5t-117.5 -29.5zM253 450q-52 0 -80 -31.5t-28 -94.5v-21h209
v21q0 126 -101 126zM304 778l113 -151l-53 -41l-110 118l-110 -118l-53 41l113 151h100z" />
    <glyph glyph-name="edieresis" unicode="&#xeb;" horiz-adv-x="501" 
d="M259 -12q-49 0 -90 16t-70 49.5t-45.5 84.5t-16.5 122t15 122.5t43.5 84.5t68 49t89.5 16q99 0 154.5 -65t55.5 -207v-26h-318v-33q0 -62 31.5 -95t86.5 -33q47 0 77.5 21t51.5 59l60 -57q-28 -49 -75.5 -78.5t-117.5 -29.5zM253 450q-52 0 -80 -31.5t-28 -94.5v-21h209
v21q0 126 -101 126zM163 612q-32 0 -46.5 13t-14.5 36v21q0 23 14.5 36t46.5 13t46.5 -13t14.5 -36v-21q0 -23 -14.5 -36t-46.5 -13zM345 612q-32 0 -46.5 13t-14.5 36v21q0 23 14.5 36t46.5 13t46.5 -13t14.5 -36v-21q0 -23 -14.5 -36t-46.5 -13z" />
    <glyph glyph-name="igrave" unicode="&#xec;" horiz-adv-x="243" 
d="M70 0v520h103v-520h-103zM1 749l90 46l84 -182l-63 -31z" />
    <glyph glyph-name="iacute" unicode="&#xed;" horiz-adv-x="243" 
d="M70 0v520h103v-520h-103zM132 582l-63 31l84 182l90 -46z" />
    <glyph glyph-name="icircumflex" unicode="&#xee;" horiz-adv-x="243" 
d="M70 0v520h103v-520h-103zM172 778l99 -151l-53 -41l-96 118l-96 -118l-53 41l99 151h100z" />
    <glyph glyph-name="idieresis" unicode="&#xef;" horiz-adv-x="243" 
d="M70 0v520h103v-520h-103zM35 612q-32 0 -46.5 13t-14.5 36v21q0 23 14.5 36t46.5 13t46.5 -13t14.5 -36v-21q0 -23 -14.5 -36t-46.5 -13zM209 612q-32 0 -46.5 13t-14.5 36v21q0 23 14.5 36t46.5 13t46.5 -13t14.5 -36v-21q0 -23 -14.5 -36t-46.5 -13z" />
    <glyph glyph-name="eth" unicode="&#xf0;" horiz-adv-x="520" 
d="M404 705l-69 -47q63 -67 102 -164.5t39 -231.5q0 -142 -57 -208t-162 -66q-108 0 -163.5 66t-55.5 195q0 125 49.5 189t137.5 64q48 0 78 -23.5t46 -66.5h12q-11 51 -37.5 100.5t-65.5 94.5l-85 -57l-32 46l76 52q-55 52 -129 92h148q28 -18 57 -42l79 54zM257 74
q54 0 82 30.5t28 98.5v84q0 68 -28 98.5t-82 30.5t-82 -30.5t-28 -98.5v-84q0 -68 28 -98.5t82 -30.5z" />
    <glyph glyph-name="ntilde" unicode="&#xf1;" horiz-adv-x="525" 
d="M70 0v520h103v-86h12q31 98 128 98q70 0 108.5 -47.5t38.5 -139.5v-345h-103v331q0 55 -21 84t-66 29q-41 0 -69 -24.5t-28 -68.5v-351h-103zM336 609q-17 0 -32.5 4.5t-41.5 19.5q-25 14 -39.5 19.5t-25.5 5.5q-17 0 -28 -7t-25 -20l-38 49q17 26 40 40.5t52 14.5
q17 0 32.5 -4.5t41.5 -19.5q25 -14 39.5 -19.5t25.5 -5.5q17 0 28 7t25 20l38 -49q-17 -26 -40 -40.5t-52 -14.5z" />
    <glyph glyph-name="ograve" unicode="&#xf2;" horiz-adv-x="506" 
d="M253 -12q-50 0 -89.5 16t-68 49t-43.5 84.5t-15 122.5t15 122.5t43.5 84.5t68 49t89.5 16q49 0 89 -16t68.5 -49t43.5 -84.5t15 -122.5t-15 -122.5t-43.5 -84.5t-68.5 -49t-89 -16zM253 74q52 0 79.5 31t27.5 94v122q0 63 -27.5 94t-79.5 31t-79.5 -31t-27.5 -94v-122
q0 -63 27.5 -94t79.5 -31zM133 749l90 46l84 -182l-63 -31z" />
    <glyph glyph-name="oacute" unicode="&#xf3;" horiz-adv-x="506" 
d="M253 -12q-50 0 -89.5 16t-68 49t-43.5 84.5t-15 122.5t15 122.5t43.5 84.5t68 49t89.5 16q49 0 89 -16t68.5 -49t43.5 -84.5t15 -122.5t-15 -122.5t-43.5 -84.5t-68.5 -49t-89 -16zM253 74q52 0 79.5 31t27.5 94v122q0 63 -27.5 94t-79.5 31t-79.5 -31t-27.5 -94v-122
q0 -63 27.5 -94t79.5 -31zM264 582l-63 31l84 182l90 -46z" />
    <glyph glyph-name="ocircumflex" unicode="&#xf4;" horiz-adv-x="506" 
d="M253 -12q-50 0 -89.5 16t-68 49t-43.5 84.5t-15 122.5t15 122.5t43.5 84.5t68 49t89.5 16q49 0 89 -16t68.5 -49t43.5 -84.5t15 -122.5t-15 -122.5t-43.5 -84.5t-68.5 -49t-89 -16zM253 74q52 0 79.5 31t27.5 94v122q0 63 -27.5 94t-79.5 31t-79.5 -31t-27.5 -94v-122
q0 -63 27.5 -94t79.5 -31zM304 778l113 -151l-53 -41l-110 118l-110 -118l-53 41l113 151h100z" />
    <glyph glyph-name="otilde" unicode="&#xf5;" horiz-adv-x="506" 
d="M253 -12q-50 0 -89.5 16t-68 49t-43.5 84.5t-15 122.5t15 122.5t43.5 84.5t68 49t89.5 16q49 0 89 -16t68.5 -49t43.5 -84.5t15 -122.5t-15 -122.5t-43.5 -84.5t-68.5 -49t-89 -16zM253 74q52 0 79.5 31t27.5 94v122q0 63 -27.5 94t-79.5 31t-79.5 -31t-27.5 -94v-122
q0 -63 27.5 -94t79.5 -31zM323 609q-17 0 -32.5 4.5t-41.5 19.5q-25 14 -39.5 19.5t-25.5 5.5q-17 0 -28 -7t-25 -20l-38 49q17 26 40 40.5t52 14.5q17 0 32.5 -4.5t41.5 -19.5q25 -14 39.5 -19.5t25.5 -5.5q17 0 28 7t25 20l38 -49q-17 -26 -40 -40.5t-52 -14.5z" />
    <glyph glyph-name="odieresis" unicode="&#xf6;" horiz-adv-x="506" 
d="M253 -12q-50 0 -89.5 16t-68 49t-43.5 84.5t-15 122.5t15 122.5t43.5 84.5t68 49t89.5 16q49 0 89 -16t68.5 -49t43.5 -84.5t15 -122.5t-15 -122.5t-43.5 -84.5t-68.5 -49t-89 -16zM253 74q52 0 79.5 31t27.5 94v122q0 63 -27.5 94t-79.5 31t-79.5 -31t-27.5 -94v-122
q0 -63 27.5 -94t79.5 -31zM163 612q-32 0 -46.5 13t-14.5 36v21q0 23 14.5 36t46.5 13t46.5 -13t14.5 -36v-21q0 -23 -14.5 -36t-46.5 -13zM345 612q-32 0 -46.5 13t-14.5 36v21q0 23 14.5 36t46.5 13t46.5 -13t14.5 -36v-21q0 -23 -14.5 -36t-46.5 -13z" />
    <glyph glyph-name="divide" unicode="&#xf7;" 
d="M58 264v84h424v-84h-424zM270 430q-66 0 -66 53v22q0 53 66 53t66 -53v-22q0 -53 -66 -53zM270 54q-66 0 -66 53v22q0 53 66 53t66 -53v-22q0 -53 -66 -53z" />
    <glyph glyph-name="oslash" unicode="&#xf8;" horiz-adv-x="509" 
d="M253 -12q-77 0 -127 38l-51 -67l-56 42l58 78q-40 66 -40 181q0 71 15 122.5t43.5 84.5t68 49t89.5 16q77 0 127 -38l51 67l56 -42l-58 -78q40 -66 40 -181q0 -71 -15 -122.5t-43.5 -84.5t-68.5 -49t-89 -16zM147 158l68 103l116 160q-27 27 -78 27q-53 0 -81 -30.5
t-28 -93.5v-70l-7 -96h10zM175 99q27 -27 78 -27q53 0 81 30.5t28 93.5v70l7 96h-10l-68 -103z" />
    <glyph glyph-name="ugrave" unicode="&#xf9;" horiz-adv-x="525" 
d="M352 86h-13q-31 -98 -129 -98q-69 0 -107.5 47.5t-38.5 139.5v345h103v-331q0 -113 88 -113q40 0 68.5 24.5t28.5 68.5v351h103v-520h-103v86zM140 749l90 46l84 -182l-63 -31z" />
    <glyph glyph-name="uacute" unicode="&#xfa;" horiz-adv-x="525" 
d="M352 86h-13q-31 -98 -129 -98q-69 0 -107.5 47.5t-38.5 139.5v345h103v-331q0 -113 88 -113q40 0 68.5 24.5t28.5 68.5v351h103v-520h-103v86zM271 582l-63 31l84 182l90 -46z" />
    <glyph glyph-name="ucircumflex" unicode="&#xfb;" horiz-adv-x="525" 
d="M352 86h-13q-31 -98 -129 -98q-69 0 -107.5 47.5t-38.5 139.5v345h103v-331q0 -113 88 -113q40 0 68.5 24.5t28.5 68.5v351h103v-520h-103v86zM311 778l113 -151l-53 -41l-110 118l-110 -118l-53 41l113 151h100z" />
    <glyph glyph-name="udieresis" unicode="&#xfc;" horiz-adv-x="525" 
d="M352 86h-13q-31 -98 -129 -98q-69 0 -107.5 47.5t-38.5 139.5v345h103v-331q0 -113 88 -113q40 0 68.5 24.5t28.5 68.5v351h103v-520h-103v86zM170 612q-32 0 -46.5 13t-14.5 36v21q0 23 14.5 36t46.5 13t46.5 -13t14.5 -36v-21q0 -23 -14.5 -36t-46.5 -13zM352 612
q-32 0 -46.5 13t-14.5 36v21q0 23 14.5 36t46.5 13t46.5 -13t14.5 -36v-21q0 -23 -14.5 -36t-46.5 -13z" />
    <glyph glyph-name="yacute" unicode="&#xfd;" horiz-adv-x="470" 
d="M354 520h102l-201 -638q-8 -24 -17.5 -40t-23 -25.5t-32.5 -13t-44 -3.5h-72v85h94l24 87l-173 548h105l78 -273l36 -158h11l36 158zM246 582l-63 31l84 182l90 -46z" />
    <glyph glyph-name="thorn" unicode="&#xfe;" horiz-adv-x="535" 
d="M70 740h103v-305h12q13 46 46.5 71.5t79.5 25.5q92 0 137.5 -70.5t45.5 -201.5t-45.5 -201.5t-137.5 -70.5q-46 0 -79.5 25t-46.5 72h-12v-285h-103v940zM274 76q53 0 82 33t29 93v116q0 60 -29 93t-82 33q-44 0 -72.5 -24.5t-28.5 -64.5v-190q0 -40 28.5 -64.5
t72.5 -24.5z" />
    <glyph glyph-name="ydieresis" unicode="&#xff;" horiz-adv-x="470" 
d="M354 520h102l-201 -638q-8 -24 -17.5 -40t-23 -25.5t-32.5 -13t-44 -3.5h-72v85h94l24 87l-173 548h105l78 -273l36 -158h11l36 158zM145 612q-32 0 -46.5 13t-14.5 36v21q0 23 14.5 36t46.5 13t46.5 -13t14.5 -36v-21q0 -23 -14.5 -36t-46.5 -13zM327 612
q-32 0 -46.5 13t-14.5 36v21q0 23 14.5 36t46.5 13t46.5 -13t14.5 -36v-21q0 -23 -14.5 -36t-46.5 -13z" />
    <glyph glyph-name="Amacron" unicode="&#x100;" horiz-adv-x="596" 
d="M468 0l-54 193h-235l-54 -193h-104l209 698h135l210 -698h-107zM324 500l-22 102h-13l-22 -102l-62 -220h184zM167 879h264v-80h-264v80z" />
    <glyph glyph-name="amacron" unicode="&#x101;" horiz-adv-x="497" 
d="M404 0q-38 0 -59 21t-21 66h-12q-11 -47 -45.5 -73t-84.5 -26q-74 0 -110.5 39.5t-36.5 111.5q0 78 50 119t147 41h86v50q0 50 -22 73.5t-70 23.5q-37 0 -63.5 -16t-48.5 -54l-61 56q26 44 70.5 72t109.5 28q94 0 141 -45.5t47 -133.5v-268h49v-85h-66zM216 68
q22 0 40.5 7t32 19t21.5 28.5t8 35.5v72h-81q-97 0 -97 -70v-24q0 -35 20.5 -51.5t55.5 -16.5zM104 713h264v-80h-264v80z" />
    <glyph glyph-name="Abreve" unicode="&#x102;" horiz-adv-x="596" 
d="M468 0l-54 193h-235l-54 -193h-104l209 698h135l210 -698h-107zM324 500l-22 102h-13l-22 -102l-62 -220h184zM299 755q-29 0 -52 7.5t-42 24.5t-34 44.5t-29 68.5l57 29l19 -37q18 -35 36 -48t45 -13t45.5 13t35.5 48l19 37l57 -29q-14 -41 -29.5 -68.5t-34.5 -44.5
t-42 -24.5t-51 -7.5z" />
    <glyph glyph-name="abreve" unicode="&#x103;" horiz-adv-x="497" 
d="M404 0q-38 0 -59 21t-21 66h-12q-11 -47 -45.5 -73t-84.5 -26q-74 0 -110.5 39.5t-36.5 111.5q0 78 50 119t147 41h86v50q0 50 -22 73.5t-70 23.5q-37 0 -63.5 -16t-48.5 -54l-61 56q26 44 70.5 72t109.5 28q94 0 141 -45.5t47 -133.5v-268h49v-85h-66zM216 68
q22 0 40.5 7t32 19t21.5 28.5t8 35.5v72h-81q-97 0 -97 -70v-24q0 -35 20.5 -51.5t55.5 -16.5zM236 589q-29 0 -52 7.5t-42 24.5t-34 44.5t-29 68.5l57 29l19 -37q18 -35 36 -48t45 -13t45.5 13t35.5 48l19 37l57 -29q-14 -41 -29.5 -68.5t-34.5 -44.5t-42 -24.5t-51 -7.5z
" />
    <glyph glyph-name="Aogonek" unicode="&#x104;" horiz-adv-x="596" 
d="M597 -165q-15 -20 -41 -32t-54 -12q-50 0 -76 19.5t-26 55.5t30.5 67.5t89.5 57.5l-2 9h-50l-54 193h-235l-54 -193h-104l209 698h135l210 -698q-55 -36 -77 -62t-22 -53q0 -33 35 -33q29 0 47 23zM324 500l-22 102h-13l-22 -102l-62 -220h184z" />
    <glyph glyph-name="aogonek" unicode="&#x105;" horiz-adv-x="497" 
d="M492 -165q-15 -20 -41 -32t-54 -12q-50 0 -76 19.5t-26 55.5q0 37 30.5 68.5t88.5 56.5l-4 9q-42 0 -64 21t-22 66h-12q-11 -47 -45.5 -73t-84.5 -26q-74 0 -110.5 39.5t-36.5 111.5q0 78 50 119t147 41h86v50q0 50 -22 73.5t-70 23.5q-37 0 -63.5 -16t-48.5 -54l-61 56
q26 44 70.5 72t109.5 28q94 0 141 -45.5t47 -133.5v-268h49v-85q-55 -36 -77 -62t-22 -53q0 -33 35 -33q29 0 47 23zM216 68q22 0 40.5 7t32 19t21.5 28.5t8 35.5v72h-81q-97 0 -97 -70v-24q0 -35 20.5 -51.5t55.5 -16.5z" />
    <glyph glyph-name="Cacute" unicode="&#x106;" horiz-adv-x="573" 
d="M313 -12q-61 0 -109.5 20.5t-83 64.5t-53 112.5t-18.5 163.5t18.5 163.5t53 112.5t83 64.5t109.5 20.5q89 0 142.5 -38.5t85.5 -115.5l-90 -50q-18 59 -50.5 85t-87.5 26q-71 0 -110.5 -49t-39.5 -135v-168q0 -86 39.5 -135t110.5 -49q56 0 90.5 28t53.5 90l88 -52
q-33 -77 -88 -118t-144 -41zM323 749l-63 31l84 182l90 -46z" />
    <glyph glyph-name="cacute" unicode="&#x107;" horiz-adv-x="460" 
d="M249 -12q-102 0 -157 65t-55 207t55 207t157 65q75 0 120 -34.5t65 -91.5l-85 -40q-9 39 -32.5 59.5t-67.5 20.5q-103 0 -103 -125v-122q0 -125 103 -125q45 0 70.5 21.5t39.5 63.5l78 -43q-23 -61 -69.5 -94.5t-118.5 -33.5zM258 582l-63 31l84 182l90 -46z" />
    <glyph glyph-name="Ccircumflex" unicode="&#x108;" horiz-adv-x="573" 
d="M313 -12q-61 0 -109.5 20.5t-83 64.5t-53 112.5t-18.5 163.5t18.5 163.5t53 112.5t83 64.5t109.5 20.5q89 0 142.5 -38.5t85.5 -115.5l-90 -50q-18 59 -50.5 85t-87.5 26q-71 0 -110.5 -49t-39.5 -135v-168q0 -86 39.5 -135t110.5 -49q56 0 90.5 28t53.5 90l88 -52
q-33 -77 -88 -118t-144 -41zM363 944l113 -151l-53 -41l-110 118l-110 -118l-53 41l113 151h100z" />
    <glyph glyph-name="ccircumflex" unicode="&#x109;" horiz-adv-x="460" 
d="M249 -12q-102 0 -157 65t-55 207t55 207t157 65q75 0 120 -34.5t65 -91.5l-85 -40q-9 39 -32.5 59.5t-67.5 20.5q-103 0 -103 -125v-122q0 -125 103 -125q45 0 70.5 21.5t39.5 63.5l78 -43q-23 -61 -69.5 -94.5t-118.5 -33.5zM298 778l113 -151l-53 -41l-110 118
l-110 -118l-53 41l113 151h100z" />
    <glyph glyph-name="Cdotaccent" unicode="&#x10a;" horiz-adv-x="573" 
d="M313 -12q-61 0 -109.5 20.5t-83 64.5t-53 112.5t-18.5 163.5t18.5 163.5t53 112.5t83 64.5t109.5 20.5q89 0 142.5 -38.5t85.5 -115.5l-90 -50q-18 59 -50.5 85t-87.5 26q-71 0 -110.5 -49t-39.5 -135v-168q0 -86 39.5 -135t110.5 -49q56 0 90.5 28t53.5 90l88 -52
q-33 -77 -88 -118t-144 -41zM313 780q-32 0 -46.5 13t-14.5 36v21q0 23 14.5 36t46.5 13t46.5 -13t14.5 -36v-21q0 -23 -14.5 -36t-46.5 -13z" />
    <glyph glyph-name="cdotaccent" unicode="&#x10b;" horiz-adv-x="460" 
d="M249 -12q-102 0 -157 65t-55 207t55 207t157 65q75 0 120 -34.5t65 -91.5l-85 -40q-9 39 -32.5 59.5t-67.5 20.5q-103 0 -103 -125v-122q0 -125 103 -125q45 0 70.5 21.5t39.5 63.5l78 -43q-23 -61 -69.5 -94.5t-118.5 -33.5zM248 611q-32 0 -46.5 13t-14.5 36v21
q0 23 14.5 36t46.5 13t46.5 -13t14.5 -36v-21q0 -23 -14.5 -36t-46.5 -13z" />
    <glyph glyph-name="Ccaron" unicode="&#x10c;" horiz-adv-x="573" 
d="M313 -12q-61 0 -109.5 20.5t-83 64.5t-53 112.5t-18.5 163.5t18.5 163.5t53 112.5t83 64.5t109.5 20.5q89 0 142.5 -38.5t85.5 -115.5l-90 -50q-18 59 -50.5 85t-87.5 26q-71 0 -110.5 -49t-39.5 -135v-168q0 -86 39.5 -135t110.5 -49q56 0 90.5 28t53.5 90l88 -52
q-33 -77 -88 -118t-144 -41zM263 760l-113 151l53 41l110 -118l110 118l53 -41l-113 -151h-100z" />
    <glyph glyph-name="ccaron" unicode="&#x10d;" horiz-adv-x="460" 
d="M249 -12q-102 0 -157 65t-55 207t55 207t157 65q75 0 120 -34.5t65 -91.5l-85 -40q-9 39 -32.5 59.5t-67.5 20.5q-103 0 -103 -125v-122q0 -125 103 -125q45 0 70.5 21.5t39.5 63.5l78 -43q-23 -61 -69.5 -94.5t-118.5 -33.5zM198 590l-113 151l53 41l110 -118l110 118
l53 -41l-113 -151h-100z" />
    <glyph glyph-name="Dcaron" unicode="&#x10e;" horiz-adv-x="617" 
d="M77 698h230q62 0 110.5 -20t82 -62.5t51 -108.5t17.5 -158t-17.5 -158t-51 -108.5t-82 -62.5t-110.5 -20h-230v698zM307 93q69 0 108 44.5t39 130.5v162q0 86 -39 130.5t-108 44.5h-124v-512h124zM238 760l-113 151l53 41l110 -118l110 118l53 -41l-113 -151h-100z" />
    <glyph glyph-name="dcaron" unicode="&#x10f;" horiz-adv-x="535" 
d="M362 85h-12q-13 -46 -46.5 -71.5t-79.5 -25.5q-93 0 -138 70.5t-45 201.5t45 201.5t138 70.5q46 0 79.5 -25.5t46.5 -71.5h12v305h103v-740h-103v85zM261 76q44 0 72.5 23t28.5 63v196q0 40 -28.5 63t-72.5 23q-53 0 -82 -33t-29 -93v-116q0 -60 29 -93t82 -33zM582 542
h-63l8 198h109z" />
    <glyph glyph-name="Dcroat" unicode="&#x110;" horiz-adv-x="623" 
d="M83 321h-65v81h65v296h230q62 0 110.5 -20t82 -62.5t51 -108.5t17.5 -158t-17.5 -158t-51 -108.5t-82 -62.5t-110.5 -20h-230v321zM313 93q69 0 108 44.5t39 130.5v162q0 86 -39 130.5t-108 44.5h-124v-203h116v-81h-116v-228h124z" />
    <glyph glyph-name="dcroat" unicode="&#x111;" horiz-adv-x="535" 
d="M362 85h-12q-13 -47 -46.5 -72t-79.5 -25q-93 0 -138 70.5t-45 201.5t45 201.5t138 70.5q46 0 79.5 -25.5t46.5 -71.5h12v177h-131v68h131v60h103v-60h58v-68h-58v-612h-103v85zM261 76q44 0 72.5 24.5t28.5 64.5v190q0 40 -28.5 64.5t-72.5 24.5q-53 0 -82 -33t-29 -93
v-116q0 -60 29 -93t82 -33z" />
    <glyph glyph-name="Emacron" unicode="&#x112;" horiz-adv-x="536" 
d="M77 0v698h405v-93h-299v-204h270v-92h-270v-216h299v-93h-405zM146 879h264v-80h-264v80z" />
    <glyph glyph-name="emacron" unicode="&#x113;" horiz-adv-x="501" 
d="M259 -12q-49 0 -90 16t-70 49.5t-45.5 84.5t-16.5 122t15 122.5t43.5 84.5t68 49t89.5 16q99 0 154.5 -65t55.5 -207v-26h-318v-33q0 -62 31.5 -95t86.5 -33q47 0 77.5 21t51.5 59l60 -57q-28 -49 -75.5 -78.5t-117.5 -29.5zM253 450q-52 0 -80 -31.5t-28 -94.5v-21h209
v21q0 126 -101 126zM122 713h264v-80h-264v80z" />
    <glyph glyph-name="Ebreve" unicode="&#x114;" horiz-adv-x="536" 
d="M77 0v698h405v-93h-299v-204h270v-92h-270v-216h299v-93h-405zM278 755q-29 0 -52 7.5t-42 24.5t-34 44.5t-29 68.5l57 29l19 -37q18 -35 36 -48t45 -13t45.5 13t35.5 48l19 37l57 -29q-14 -41 -29.5 -68.5t-34.5 -44.5t-42 -24.5t-51 -7.5z" />
    <glyph glyph-name="ebreve" unicode="&#x115;" horiz-adv-x="501" 
d="M259 -12q-49 0 -90 16t-70 49.5t-45.5 84.5t-16.5 122t15 122.5t43.5 84.5t68 49t89.5 16q99 0 154.5 -65t55.5 -207v-26h-318v-33q0 -62 31.5 -95t86.5 -33q47 0 77.5 21t51.5 59l60 -57q-28 -49 -75.5 -78.5t-117.5 -29.5zM253 450q-52 0 -80 -31.5t-28 -94.5v-21h209
v21q0 126 -101 126zM254 589q-29 0 -52 7.5t-42 24.5t-34 44.5t-29 68.5l57 29l19 -37q18 -35 36 -48t45 -13t45.5 13t35.5 48l19 37l57 -29q-14 -41 -29.5 -68.5t-34.5 -44.5t-42 -24.5t-51 -7.5z" />
    <glyph glyph-name="Edotaccent" unicode="&#x116;" horiz-adv-x="536" 
d="M77 0v698h405v-93h-299v-204h270v-92h-270v-216h299v-93h-405zM278 780q-32 0 -46.5 13t-14.5 36v21q0 23 14.5 36t46.5 13t46.5 -13t14.5 -36v-21q0 -23 -14.5 -36t-46.5 -13z" />
    <glyph glyph-name="edotaccent" unicode="&#x117;" horiz-adv-x="501" 
d="M259 -12q-49 0 -90 16t-70 49.5t-45.5 84.5t-16.5 122t15 122.5t43.5 84.5t68 49t89.5 16q99 0 154.5 -65t55.5 -207v-26h-318v-33q0 -62 31.5 -95t86.5 -33q47 0 77.5 21t51.5 59l60 -57q-28 -49 -75.5 -78.5t-117.5 -29.5zM253 450q-52 0 -80 -31.5t-28 -94.5v-21h209
v21q0 126 -101 126zM254 611q-32 0 -46.5 13t-14.5 36v21q0 23 14.5 36t46.5 13t46.5 -13t14.5 -36v-21q0 -23 -14.5 -36t-46.5 -13z" />
    <glyph glyph-name="Eogonek" unicode="&#x118;" horiz-adv-x="536" 
d="M77 698h405v-93h-299v-204h270v-92h-270v-216h299v-93q-55 -36 -77 -62t-22 -53q0 -33 35 -33q29 0 47 23l39 -40q-15 -20 -41 -32t-54 -12q-50 0 -76 19.5t-26 55.5t30.5 67.5t88.5 57.5l-1 9h-348v698z" />
    <glyph glyph-name="eogonek" unicode="&#x119;" horiz-adv-x="501" 
d="M294 -209q-50 0 -76 19.5t-26 55.5t27.5 65t84.5 55l-2 8q-20 -6 -43 -6q-49 0 -90 16t-70 49.5t-45.5 84.5t-16.5 122t15 122.5t43.5 84.5t68 49t89.5 16q99 0 154.5 -65t55.5 -207v-26h-318v-33q0 -62 31.5 -95t86.5 -33q47 0 77.5 21t51.5 59l60 -57
q-11 -20 -26 -35.5t-32 -29.5q-38 -33 -62.5 -55.5t-38.5 -38.5t-19.5 -28t-5.5 -24q0 -33 35 -33q29 0 47 23l39 -40q-15 -20 -41 -32t-54 -12zM354 303v21q0 126 -101 126q-52 0 -80 -31.5t-28 -94.5v-21h209z" />
    <glyph glyph-name="Ecaron" unicode="&#x11a;" horiz-adv-x="536" 
d="M77 0v698h405v-93h-299v-204h270v-92h-270v-216h299v-93h-405zM228 760l-113 151l53 41l110 -118l110 118l53 -41l-113 -151h-100z" />
    <glyph glyph-name="ecaron" unicode="&#x11b;" horiz-adv-x="501" 
d="M259 -12q-49 0 -90 16t-70 49.5t-45.5 84.5t-16.5 122t15 122.5t43.5 84.5t68 49t89.5 16q99 0 154.5 -65t55.5 -207v-26h-318v-33q0 -62 31.5 -95t86.5 -33q47 0 77.5 21t51.5 59l60 -57q-28 -49 -75.5 -78.5t-117.5 -29.5zM253 450q-52 0 -80 -31.5t-28 -94.5v-21h209
v21q0 126 -101 126zM204 590l-113 151l53 41l110 -118l110 118l53 -41l-113 -151h-100z" />
    <glyph glyph-name="Gcircumflex" unicode="&#x11c;" horiz-adv-x="635" 
d="M479 103h-12q-10 -50 -51 -82.5t-116 -32.5q-54 0 -99.5 20t-79.5 63.5t-53 112t-19 164.5t18.5 164.5t54 112.5t85.5 64.5t113 20.5q93 0 151 -40t90 -114l-87 -51q-18 51 -54.5 81t-98.5 30q-75 0 -116.5 -48t-41.5 -134v-170q0 -86 41.5 -134t116.5 -48q31 0 58 9
t47.5 26t32 42.5t11.5 57.5v61h-129v91h232v-369h-94v103zM372 944l113 -151l-53 -41l-110 118l-110 -118l-53 41l113 151h100z" />
    <glyph glyph-name="gcircumflex" unicode="&#x11d;" horiz-adv-x="486" 
d="M484 -51q0 -41 -13 -71t-42 -50t-74.5 -30t-111.5 -10q-59 0 -100 8.5t-66.5 24.5t-36.5 39.5t-11 53.5q0 40 21.5 63.5t59.5 29.5v17q-28 10 -41.5 30t-13.5 48q0 35 22.5 56.5t60.5 27.5v12q-84 43 -84 156q0 86 47.5 132t141.5 46q45 0 80 -12h150v-76h-123v-10
q40 -5 60.5 -30t20.5 -62q0 -77 -48 -121t-140 -44q-18 0 -34.5 2t-31.5 5q-20 -6 -30 -20.5t-10 -31.5q0 -20 13.5 -30t44.5 -10h125q89 0 126.5 -37t37.5 -106zM243 252q89 0 89 88v30q0 88 -89 88t-89 -88v-30q0 -88 89 -88zM387 -61q0 29 -19 45t-64 16h-160
q-30 -21 -30 -62q0 -35 22.5 -54.5t76.5 -19.5h62q59 0 85.5 18.5t26.5 56.5zM298 778l113 -151l-53 -41l-110 118l-110 -118l-53 41l113 151h100z" />
    <glyph glyph-name="Gbreve" unicode="&#x11e;" horiz-adv-x="635" 
d="M479 103h-12q-10 -50 -51 -82.5t-116 -32.5q-54 0 -99.5 20t-79.5 63.5t-53 112t-19 164.5t18.5 164.5t54 112.5t85.5 64.5t113 20.5q93 0 151 -40t90 -114l-87 -51q-18 51 -54.5 81t-98.5 30q-75 0 -116.5 -48t-41.5 -134v-170q0 -86 41.5 -134t116.5 -48q31 0 58 9
t47.5 26t32 42.5t11.5 57.5v61h-129v91h232v-369h-94v103zM322 755q-29 0 -52 7.5t-42 24.5t-34 44.5t-29 68.5l57 29l19 -37q18 -35 36 -48t45 -13t45.5 13t35.5 48l19 37l57 -29q-14 -41 -29.5 -68.5t-34.5 -44.5t-42 -24.5t-51 -7.5z" />
    <glyph glyph-name="gbreve" unicode="&#x11f;" horiz-adv-x="486" 
d="M484 -51q0 -41 -13 -71t-42 -50t-74.5 -30t-111.5 -10q-59 0 -100 8.5t-66.5 24.5t-36.5 39.5t-11 53.5q0 40 21.5 63.5t59.5 29.5v17q-28 10 -41.5 30t-13.5 48q0 35 22.5 56.5t60.5 27.5v12q-84 43 -84 156q0 86 47.5 132t141.5 46q45 0 80 -12h150v-76h-123v-10
q40 -5 60.5 -30t20.5 -62q0 -77 -48 -121t-140 -44q-18 0 -34.5 2t-31.5 5q-20 -6 -30 -20.5t-10 -31.5q0 -20 13.5 -30t44.5 -10h125q89 0 126.5 -37t37.5 -106zM243 252q89 0 89 88v30q0 88 -89 88t-89 -88v-30q0 -88 89 -88zM387 -61q0 29 -19 45t-64 16h-160
q-30 -21 -30 -62q0 -35 22.5 -54.5t76.5 -19.5h62q59 0 85.5 18.5t26.5 56.5zM248 589q-29 0 -52 7.5t-42 24.5t-34 44.5t-29 68.5l57 29l19 -37q18 -35 36 -48t45 -13t45.5 13t35.5 48l19 37l57 -29q-14 -41 -29.5 -68.5t-34.5 -44.5t-42 -24.5t-51 -7.5z" />
    <glyph glyph-name="Gdotaccent" unicode="&#x120;" horiz-adv-x="635" 
d="M479 103h-12q-10 -50 -51 -82.5t-116 -32.5q-54 0 -99.5 20t-79.5 63.5t-53 112t-19 164.5t18.5 164.5t54 112.5t85.5 64.5t113 20.5q93 0 151 -40t90 -114l-87 -51q-18 51 -54.5 81t-98.5 30q-75 0 -116.5 -48t-41.5 -134v-170q0 -86 41.5 -134t116.5 -48q31 0 58 9
t47.5 26t32 42.5t11.5 57.5v61h-129v91h232v-369h-94v103zM322 780q-32 0 -46.5 13t-14.5 36v21q0 23 14.5 36t46.5 13t46.5 -13t14.5 -36v-21q0 -23 -14.5 -36t-46.5 -13z" />
    <glyph glyph-name="gdotaccent" unicode="&#x121;" horiz-adv-x="486" 
d="M484 -51q0 -41 -13 -71t-42 -50t-74.5 -30t-111.5 -10q-59 0 -100 8.5t-66.5 24.5t-36.5 39.5t-11 53.5q0 40 21.5 63.5t59.5 29.5v17q-28 10 -41.5 30t-13.5 48q0 35 22.5 56.5t60.5 27.5v12q-84 43 -84 156q0 86 47.5 132t141.5 46q45 0 80 -12h150v-76h-123v-10
q40 -5 60.5 -30t20.5 -62q0 -77 -48 -121t-140 -44q-18 0 -34.5 2t-31.5 5q-20 -6 -30 -20.5t-10 -31.5q0 -20 13.5 -30t44.5 -10h125q89 0 126.5 -37t37.5 -106zM243 252q89 0 89 88v30q0 88 -89 88t-89 -88v-30q0 -88 89 -88zM387 -61q0 29 -19 45t-64 16h-160
q-30 -21 -30 -62q0 -35 22.5 -54.5t76.5 -19.5h62q59 0 85.5 18.5t26.5 56.5zM248 611q-32 0 -46.5 13t-14.5 36v21q0 23 14.5 36t46.5 13t46.5 -13t14.5 -36v-21q0 -23 -14.5 -36t-46.5 -13z" />
    <glyph glyph-name="Gcommaaccent" unicode="&#x122;" horiz-adv-x="635" 
d="M479 103h-12q-10 -50 -51 -82.5t-116 -32.5q-54 0 -99.5 20t-79.5 63.5t-53 112t-19 164.5t18.5 164.5t54 112.5t85.5 64.5t113 20.5q93 0 151 -40t90 -114l-87 -51q-18 51 -54.5 81t-98.5 30q-75 0 -116.5 -48t-41.5 -134v-170q0 -86 41.5 -134t116.5 -48q31 0 58 9
t47.5 26t32 42.5t11.5 57.5v61h-129v91h232v-369h-94v103zM318 -57q58 0 58 -48v-18q0 -37 -16 -72.5t-45 -62.5h-67q24 23 37 43t18 44q-43 4 -43 48v18q0 48 58 48z" />
    <glyph glyph-name="gcommaaccent" unicode="&#x123;" horiz-adv-x="486" 
d="M484 -51q0 -41 -13 -71t-42 -50t-74.5 -30t-111.5 -10q-59 0 -100 8.5t-66.5 24.5t-36.5 39.5t-11 53.5q0 40 21.5 63.5t59.5 29.5v17q-28 10 -41.5 30t-13.5 48q0 35 22.5 56.5t60.5 27.5v12q-84 43 -84 156q0 86 47.5 132t141.5 46q45 0 80 -12h150v-76h-123v-10
q40 -5 60.5 -30t20.5 -62q0 -77 -48 -121t-140 -44q-18 0 -34.5 2t-31.5 5q-20 -6 -30 -20.5t-10 -31.5q0 -20 13.5 -30t44.5 -10h125q89 0 126.5 -37t37.5 -106zM243 252q89 0 89 88v30q0 88 -89 88t-89 -88v-30q0 -88 89 -88zM387 -61q0 29 -19 45t-64 16h-160
q-30 -21 -30 -62q0 -35 22.5 -54.5t76.5 -19.5h62q59 0 85.5 18.5t26.5 56.5zM248 587q-59 0 -59 48v19q0 37 16.5 72t45.5 63h66q-22 -23 -35 -42.5t-20 -45.5q24 -2 34.5 -14t10.5 -33v-19q0 -48 -59 -48z" />
    <glyph glyph-name="Hcircumflex" unicode="&#x124;" horiz-adv-x="644" 
d="M461 309h-278v-309h-106v698h106v-297h278v297h106v-698h-106v309zM372 944l113 -151l-53 -41l-110 118l-110 -118l-53 41l113 151h100z" />
    <glyph glyph-name="hcircumflex" unicode="&#x125;" horiz-adv-x="525" 
d="M70 740h103v-306h12q31 98 128 98q70 0 108.5 -47.5t38.5 -139.5v-345h-103v331q0 55 -21 84t-66 29q-41 0 -69 -24.5t-28 -68.5v-351h-103v740zM173 936l113 -151l-53 -41l-110 118l-110 -118l-53 41l113 151h100z" />
    <glyph glyph-name="Hbar" unicode="&#x126;" horiz-adv-x="656" 
d="M467 309h-278v-309h-106v519h-65v72h65v107h106v-107h278v107h106v-107h66v-72h-66v-519h-106v309zM467 401v118h-278v-118h278z" />
    <glyph glyph-name="hbar" unicode="&#x127;" horiz-adv-x="525" 
d="M70 0v612h-58v68h58v60h103v-60h131v-68h-131v-178h12q31 98 128 98q70 0 108.5 -47.5t38.5 -139.5v-345h-103v331q0 55 -21 84t-66 29q-41 0 -69 -24.5t-28 -68.5v-351h-103z" />
    <glyph glyph-name="Itilde" unicode="&#x128;" horiz-adv-x="377" 
d="M50 0v85h85v528h-85v85h276v-85h-85v-528h85v-85h-276zM259 775q-17 0 -32.5 4.5t-41.5 19.5q-25 14 -39.5 19.5t-25.5 5.5q-17 0 -28 -7t-25 -20l-38 49q17 26 40 40.5t52 14.5q17 0 32.5 -4.5t41.5 -19.5q25 -14 39.5 -19.5t25.5 -5.5q17 0 28 7t25 20l38 -49
q-17 -26 -40 -40.5t-52 -14.5z" />
    <glyph glyph-name="itilde" unicode="&#x129;" horiz-adv-x="243" 
d="M70 0v520h103v-520h-103zM180 612q-20 0 -34 6t-29 16q-31 20 -53 20q-13 0 -23.5 -6t-22.5 -18l-38 49q32 53 83 53q20 0 34 -6t29 -16q31 -20 53 -20q13 0 23.5 6t22.5 18l38 -49q-32 -53 -83 -53z" />
    <glyph glyph-name="Imacron" unicode="&#x12a;" horiz-adv-x="377" 
d="M50 0v85h85v528h-85v85h276v-85h-85v-528h85v-85h-276zM58 879h264v-80h-264v80z" />
    <glyph glyph-name="imacron" unicode="&#x12b;" horiz-adv-x="243" 
d="M70 0v520h103v-520h-103zM-5 713h254v-80h-254v80z" />
    <glyph glyph-name="Ibreve" unicode="&#x12c;" horiz-adv-x="377" 
d="M50 0v85h85v528h-85v85h276v-85h-85v-528h85v-85h-276zM190 755q-29 0 -52 7.5t-42 24.5t-34 44.5t-29 68.5l57 29l19 -37q18 -35 36 -48t45 -13t45.5 13t35.5 48l19 37l57 -29q-14 -41 -29.5 -68.5t-34.5 -44.5t-42 -24.5t-51 -7.5z" />
    <glyph glyph-name="ibreve" unicode="&#x12d;" horiz-adv-x="243" 
d="M70 0v520h103v-520h-103zM122 589q-29 0 -50.5 7.5t-38.5 25t-30 46t-23 70.5l57 24l14 -38q12 -32 28.5 -45.5t42.5 -13.5t43 14t28 45l15 38l56 -24q-21 -83 -54 -116t-88 -33z" />
    <glyph glyph-name="Iogonek" unicode="&#x12e;" horiz-adv-x="377" 
d="M50 85h85v528h-85v85h276v-85h-85v-528h85v-85q-55 -36 -77 -62t-22 -53q0 -33 35 -33q29 0 47 23l39 -40q-15 -20 -41 -32t-54 -12q-50 0 -76 19.5t-26 55.5t30.5 67.5t88.5 57.5l-1 9h-219v85z" />
    <glyph glyph-name="iogonek" unicode="&#x12f;" horiz-adv-x="243" 
d="M121 619q-62 0 -62 53v18q0 53 62 53t62 -53v-18q0 -53 -62 -53zM195 -165q-15 -20 -41 -32t-54 -12q-50 0 -76 19.5t-26 55.5t31 67.5t90 57.5l-2 9h-47v520h103v-520q-55 -36 -77 -62t-22 -53q0 -33 35 -33q29 0 47 23z" />
    <glyph glyph-name="Idotaccent" unicode="&#x130;" horiz-adv-x="377" 
d="M50 0v85h85v528h-85v85h276v-85h-85v-528h85v-85h-276zM190 780q-32 0 -46.5 13t-14.5 36v21q0 23 14.5 36t46.5 13t46.5 -13t14.5 -36v-21q0 -23 -14.5 -36t-46.5 -13z" />
    <glyph glyph-name="dotlessi" unicode="&#x131;" horiz-adv-x="243" 
d="M70 0v520h103v-520h-103z" />
    <glyph glyph-name="IJ" unicode="&#x132;" horiz-adv-x="586" 
d="M513 698v-508q0 -94 -58 -148t-160 -54q-98 0 -150.5 47.5t-66.5 128.5l99 22q8 -51 36 -77.5t81 -26.5q51 0 82 28.5t31 91.5v407h-107v89h213zM73 698h106v-401h-106v401z" />
    <glyph glyph-name="ij" unicode="&#x133;" horiz-adv-x="485" 
d="M122 619q-62 0 -62 53v18q0 53 62 53t62 -53v-18q0 -53 -62 -53zM71 520h103v-520h-103v520zM313 520h103v-607q0 -58 -26.5 -85.5t-87.5 -27.5h-62v85h73v635zM364 619q-62 0 -62 53v18q0 53 62 53t62 -53v-18q0 -53 -62 -53z" />
    <glyph glyph-name="Jcircumflex" unicode="&#x134;" horiz-adv-x="481" 
d="M408 698v-526q0 -87 -51 -135.5t-142 -48.5q-87 0 -133 45.5t-59 124.5l96 22q8 -48 29.5 -73t66.5 -25q41 0 64 24t23 78v425h-203v89h309zM306 944l113 -151l-53 -41l-110 118l-110 -118l-53 41l113 151h100z" />
    <glyph glyph-name="jcircumflex" unicode="&#x135;" horiz-adv-x="244" 
d="M-2 -115h73v635h103v-607q0 -58 -26.5 -85.5t-87.5 -27.5h-62v85zM174 778l99 -151l-53 -41l-96 118l-96 -118l-53 41l99 151h100z" />
    <glyph glyph-name="Kcommaaccent" unicode="&#x136;" horiz-adv-x="598" 
d="M270 330l-87 -112v-218h-106v698h106v-230l-6 -130h13l89 130l164 230h122l-222 -296l238 -402h-125zM314 -57q58 0 58 -48v-18q0 -37 -16 -72.5t-45 -62.5h-67q24 23 37 43t18 44q-43 4 -43 48v18q0 48 58 48z" />
    <glyph glyph-name="kcommaaccent" unicode="&#x137;" horiz-adv-x="497" 
d="M70 740h103v-359l-7 -105h11l66 97l114 147h119l-166 -206l177 -314h-118l-132 249l-64 -77v-172h-103v740zM268 -57q58 0 58 -48v-18q0 -37 -16 -72.5t-45 -62.5h-67q24 23 37 43t18 44q-43 4 -43 48v18q0 48 58 48z" />
    <glyph glyph-name="kgreenlandic" unicode="&#x138;" horiz-adv-x="497" 
d="M237 250l-64 -78v-172h-103v520h103v-138l-7 -105h11l66 96l114 147h119l-166 -205l177 -315h-118z" />
    <glyph glyph-name="Lacute" unicode="&#x139;" horiz-adv-x="465" 
d="M77 0v698h106v-605h254v-93h-360zM141 749l-63 31l84 182l90 -46z" />
    <glyph glyph-name="lacute" unicode="&#x13a;" horiz-adv-x="260" 
d="M172 0q-54 0 -78 24.5t-24 76.5v639h103v-655h62v-85h-63zM132 782l-63 31l84 182l90 -46z" />
    <glyph glyph-name="Lcommaaccent" unicode="&#x13b;" horiz-adv-x="465" 
d="M77 0v698h106v-605h254v-93h-360zM263 -57q58 0 58 -48v-18q0 -37 -16 -72.5t-45 -62.5h-67q24 23 37 43t18 44q-43 4 -43 48v18q0 48 58 48z" />
    <glyph glyph-name="lcommaaccent" unicode="&#x13c;" horiz-adv-x="260" 
d="M172 0q-54 0 -78 24.5t-24 76.5v639h103v-655h62v-85h-63zM153 -57q58 0 58 -48v-18q0 -37 -16 -72.5t-45 -62.5h-67q24 23 37 43t18 44q-43 4 -43 48v18q0 48 58 48z" />
    <glyph glyph-name="Lcaron" unicode="&#x13d;" horiz-adv-x="465" 
d="M77 0v698h106v-605h254v-93h-360zM315 542h-63l8 198h109z" />
    <glyph glyph-name="lcaron" unicode="&#x13e;" horiz-adv-x="260" 
d="M172 0q-54 0 -78 24.5t-24 76.5v639h103v-655h62v-85h-63zM290 542h-63l8 198h109z" />
    <glyph glyph-name="Ldot" unicode="&#x13f;" horiz-adv-x="465" 
d="M77 0v698h106v-605h254v-93h-360zM357 302q-32 0 -46.5 13t-14.5 36v21q0 23 14.5 36t46.5 13t46.5 -13t14.5 -36v-21q0 -23 -14.5 -36t-46.5 -13z" />
    <glyph glyph-name="ldot" unicode="&#x140;" horiz-adv-x="357" 
d="M172 0q-54 0 -78 24.5t-24 76.5v639h103v-655h62v-85h-63zM297 266q-32 0 -46.5 13t-14.5 36v21q0 23 14.5 36t46.5 13t46.5 -13t14.5 -36v-21q0 -23 -14.5 -36t-46.5 -13z" />
    <glyph glyph-name="Lslash" unicode="&#x141;" horiz-adv-x="473" 
d="M445 0h-360v261l-84 -30v80l84 30v357h106v-319l151 55v-80l-151 -55v-206h254v-93z" />
    <glyph glyph-name="lslash" unicode="&#x142;" horiz-adv-x="267" 
d="M235 0h-63q-54 0 -78 24.5t-24 76.5v214l-65 -23v80l65 23v345h103v-308l85 30v-80l-85 -30v-267h62v-85z" />
    <glyph glyph-name="Nacute" unicode="&#x143;" horiz-adv-x="645" 
d="M237 419l-53 130h-13l8 -132v-417h-102v698h122l208 -419l54 -130h13l-8 132v417h102v-698h-123zM332 749l-63 31l84 182l90 -46z" />
    <glyph glyph-name="nacute" unicode="&#x144;" horiz-adv-x="525" 
d="M70 0v520h103v-86h12q31 98 128 98q70 0 108.5 -47.5t38.5 -139.5v-345h-103v331q0 55 -21 84t-66 29q-41 0 -69 -24.5t-28 -68.5v-351h-103zM277 582l-63 31l84 182l90 -46z" />
    <glyph glyph-name="Ncommaaccent" unicode="&#x145;" horiz-adv-x="645" 
d="M237 419l-53 130h-13l8 -132v-417h-102v698h122l208 -419l54 -130h13l-8 132v417h102v-698h-123zM322 -57q58 0 58 -48v-18q0 -37 -16 -72.5t-45 -62.5h-67q24 23 37 43t18 44q-43 4 -43 48v18q0 48 58 48z" />
    <glyph glyph-name="ncommaaccent" unicode="&#x146;" horiz-adv-x="525" 
d="M70 0v520h103v-86h12q31 98 128 98q70 0 108.5 -47.5t38.5 -139.5v-345h-103v331q0 55 -21 84t-66 29q-41 0 -69 -24.5t-28 -68.5v-351h-103zM265 -57q58 0 58 -48v-18q0 -37 -16 -72.5t-45 -62.5h-67q24 23 37 43t18 44q-43 4 -43 48v18q0 48 58 48z" />
    <glyph glyph-name="Ncaron" unicode="&#x147;" horiz-adv-x="645" 
d="M237 419l-53 130h-13l8 -132v-417h-102v698h122l208 -419l54 -130h13l-8 132v417h102v-698h-123zM272 760l-113 151l53 41l110 -118l110 118l53 -41l-113 -151h-100z" />
    <glyph glyph-name="ncaron" unicode="&#x148;" horiz-adv-x="525" 
d="M70 0v520h103v-86h12q31 98 128 98q70 0 108.5 -47.5t38.5 -139.5v-345h-103v331q0 55 -21 84t-66 29q-41 0 -69 -24.5t-28 -68.5v-351h-103zM217 590l-113 151l53 41l110 -118l110 118l53 -41l-113 -151h-100z" />
    <glyph glyph-name="napostrophe" unicode="&#x149;" horiz-adv-x="779" 
d="M132 747q35 0 51.5 -15.5t16.5 -43.5v-21q0 -47 -25 -96t-67 -85h-72q29 31 48.5 60t28.5 65q-49 9 -49 56v21q0 28 16.5 43.5t51.5 15.5zM324 0v520h103v-86h12q31 98 128 98q70 0 108.5 -47.5t38.5 -139.5v-345h-103v331q0 55 -21 84t-66 29q-41 0 -69 -24.5t-28 -68.5
v-351h-103z" />
    <glyph glyph-name="Eng" unicode="&#x14a;" horiz-adv-x="644" 
d="M77 0v698h122l208 -419l54 -130h13l-8 132v417h102v-785q0 -58 -27 -85.5t-87 -27.5h-63v85h75v115h-21l-208 419l-53 130h-13l8 -132v-417h-102z" />
    <glyph glyph-name="eng" unicode="&#x14b;" horiz-adv-x="524" 
d="M284 -115h73v446q0 55 -21 84t-66 29q-41 0 -69 -24.5t-28 -68.5v-351h-103v520h103v-86h12q31 98 128 98q70 0 108.5 -47.5t38.5 -139.5v-432q0 -58 -26.5 -85.5t-87.5 -27.5h-62v85z" />
    <glyph glyph-name="Omacron" unicode="&#x14c;" horiz-adv-x="640" 
d="M320 -12q-63 0 -113 20.5t-85.5 64.5t-54 112.5t-18.5 163.5t18.5 163.5t54 112.5t85.5 64.5t113 20.5t113 -20.5t85.5 -64.5t54 -112.5t18.5 -163.5t-18.5 -163.5t-54 -112.5t-85.5 -64.5t-113 -20.5zM320 82q75 0 116 48.5t41 134.5v168q0 86 -41 134.5t-116 48.5
t-116 -48.5t-41 -134.5v-168q0 -86 41 -134.5t116 -48.5zM188 879h264v-80h-264v80z" />
    <glyph glyph-name="omacron" unicode="&#x14d;" horiz-adv-x="506" 
d="M253 -12q-50 0 -89.5 16t-68 49t-43.5 84.5t-15 122.5t15 122.5t43.5 84.5t68 49t89.5 16q49 0 89 -16t68.5 -49t43.5 -84.5t15 -122.5t-15 -122.5t-43.5 -84.5t-68.5 -49t-89 -16zM253 74q52 0 79.5 31t27.5 94v122q0 63 -27.5 94t-79.5 31t-79.5 -31t-27.5 -94v-122
q0 -63 27.5 -94t79.5 -31zM122 713h264v-80h-264v80z" />
    <glyph glyph-name="Obreve" unicode="&#x14e;" horiz-adv-x="640" 
d="M320 -12q-63 0 -113 20.5t-85.5 64.5t-54 112.5t-18.5 163.5t18.5 163.5t54 112.5t85.5 64.5t113 20.5t113 -20.5t85.5 -64.5t54 -112.5t18.5 -163.5t-18.5 -163.5t-54 -112.5t-85.5 -64.5t-113 -20.5zM320 82q75 0 116 48.5t41 134.5v168q0 86 -41 134.5t-116 48.5
t-116 -48.5t-41 -134.5v-168q0 -86 41 -134.5t116 -48.5zM320 755q-29 0 -52 7.5t-42 24.5t-34 44.5t-29 68.5l57 29l19 -37q18 -35 36 -48t45 -13t45.5 13t35.5 48l19 37l57 -29q-14 -41 -29.5 -68.5t-34.5 -44.5t-42 -24.5t-51 -7.5z" />
    <glyph glyph-name="obreve" unicode="&#x14f;" horiz-adv-x="506" 
d="M253 -12q-50 0 -89.5 16t-68 49t-43.5 84.5t-15 122.5t15 122.5t43.5 84.5t68 49t89.5 16q49 0 89 -16t68.5 -49t43.5 -84.5t15 -122.5t-15 -122.5t-43.5 -84.5t-68.5 -49t-89 -16zM253 74q52 0 79.5 31t27.5 94v122q0 63 -27.5 94t-79.5 31t-79.5 -31t-27.5 -94v-122
q0 -63 27.5 -94t79.5 -31zM254 589q-29 0 -52 7.5t-42 24.5t-34 44.5t-29 68.5l57 29l19 -37q18 -35 36 -48t45 -13t45.5 13t35.5 48l19 37l57 -29q-14 -41 -29.5 -68.5t-34.5 -44.5t-42 -24.5t-51 -7.5z" />
    <glyph glyph-name="Ohungarumlaut" unicode="&#x150;" horiz-adv-x="640" 
d="M320 -12q-63 0 -113 20.5t-85.5 64.5t-54 112.5t-18.5 163.5t18.5 163.5t54 112.5t85.5 64.5t113 20.5t113 -20.5t85.5 -64.5t54 -112.5t18.5 -163.5t-18.5 -163.5t-54 -112.5t-85.5 -64.5t-113 -20.5zM320 82q75 0 116 48.5t41 134.5v168q0 86 -41 134.5t-116 48.5
t-116 -48.5t-41 -134.5v-168q0 -86 41 -134.5t116 -48.5zM246 749l-58 30l84 181l84 -43zM411 749l-59 30l85 181l84 -43z" />
    <glyph glyph-name="ohungarumlaut" unicode="&#x151;" horiz-adv-x="506" 
d="M253 -12q-50 0 -89.5 16t-68 49t-43.5 84.5t-15 122.5t15 122.5t43.5 84.5t68 49t89.5 16q49 0 89 -16t68.5 -49t43.5 -84.5t15 -122.5t-15 -122.5t-43.5 -84.5t-68.5 -49t-89 -16zM253 74q52 0 79.5 31t27.5 94v122q0 63 -27.5 94t-79.5 31t-79.5 -31t-27.5 -94v-122
q0 -63 27.5 -94t79.5 -31zM180 582l-58 30l84 181l84 -43zM345 582l-59 30l85 181l84 -43z" />
    <glyph glyph-name="OE" unicode="&#x152;" horiz-adv-x="892" 
d="M438 0q-26 -6 -54.5 -9t-52.5 -3q-66 0 -118.5 20.5t-88.5 64.5t-55.5 112.5t-19.5 163.5t19.5 163.5t55.5 112.5t88.5 64.5t118.5 20.5q24 0 52.5 -3t54.5 -9h400v-93h-299v-204h270v-92h-270v-216h299v-93h-400zM163 265q0 -86 43.5 -134.5t124.5 -48.5q60 0 102 15
v504q-42 15 -102 15q-81 0 -124.5 -48.5t-43.5 -134.5v-168z" />
    <glyph glyph-name="oe" unicode="&#x153;" horiz-adv-x="824" 
d="M253 74q52 0 79.5 31t27.5 94v122q0 63 -27.5 94t-79.5 31t-79.5 -31t-27.5 -94v-122q0 -63 27.5 -94t79.5 -31zM678 303v21q0 126 -101 126q-52 0 -80 -31.5t-28 -94.5v-21h209zM583 -12q-28 0 -54.5 7.5t-48 21.5t-37.5 34.5t-22 46.5h-13q-11 -52 -53 -81t-102 -29
q-50 0 -89.5 16t-68 49t-43.5 84.5t-15 122.5t15 122.5t43.5 84.5t68 49t89.5 16q58 0 101 -29.5t54 -80.5h12q12 51 56 80.5t105 29.5q96 0 151 -65t55 -207v-26h-318v-33q0 -62 31.5 -95t86.5 -33q47 0 77.5 21t51.5 59l60 -57q-28 -49 -75.5 -78.5t-117.5 -29.5z" />
    <glyph glyph-name="Racute" unicode="&#x154;" horiz-adv-x="592" 
d="M183 0h-106v698h276q90 0 135.5 -53.5t45.5 -153.5q0 -81 -30 -131t-90 -67l133 -293h-118l-121 285h-125v-285zM344 374q38 0 57.5 19.5t19.5 63.5v65q0 44 -19.5 63.5t-57.5 19.5h-161v-231h161zM293 749l-63 31l84 182l90 -46z" />
    <glyph glyph-name="racute" unicode="&#x155;" horiz-adv-x="347" 
d="M70 0v520h103v-103h12q11 50 41.5 76.5t77.5 26.5h26v-105h-44q-55 0 -84 -21t-29 -67v-327h-103zM210 582l-63 31l84 182l90 -46z" />
    <glyph glyph-name="Rcommaaccent" unicode="&#x156;" horiz-adv-x="592" 
d="M183 0h-106v698h276q90 0 135.5 -53.5t45.5 -153.5q0 -81 -30 -131t-90 -67l133 -293h-118l-121 285h-125v-285zM344 374q38 0 57.5 19.5t19.5 63.5v65q0 44 -19.5 63.5t-57.5 19.5h-161v-231h161zM293 -57q58 0 58 -48v-18q0 -37 -16 -72.5t-45 -62.5h-67q24 23 37 43
t18 44q-43 4 -43 48v18q0 48 58 48z" />
    <glyph glyph-name="rcommaaccent" unicode="&#x157;" horiz-adv-x="347" 
d="M70 0v520h103v-103h12q11 50 41.5 76.5t77.5 26.5h26v-105h-44q-55 0 -84 -21t-29 -67v-327h-103zM122 -57q58 0 58 -48v-18q0 -37 -16 -72.5t-45 -62.5h-67q24 23 37 43t18 44q-43 4 -43 48v18q0 48 58 48z" />
    <glyph glyph-name="Rcaron" unicode="&#x158;" horiz-adv-x="592" 
d="M183 0h-106v698h276q90 0 135.5 -53.5t45.5 -153.5q0 -81 -30 -131t-90 -67l133 -293h-118l-121 285h-125v-285zM344 374q38 0 57.5 19.5t19.5 63.5v65q0 44 -19.5 63.5t-57.5 19.5h-161v-231h161zM233 760l-113 151l53 41l110 -118l110 118l53 -41l-113 -151h-100z" />
    <glyph glyph-name="rcaron" unicode="&#x159;" horiz-adv-x="347" 
d="M70 0v520h103v-103h12q11 50 41.5 76.5t77.5 26.5h26v-105h-44q-55 0 -84 -21t-29 -67v-327h-103zM150 590l-113 151l53 41l110 -118l110 118l53 -41l-113 -151h-100z" />
    <glyph glyph-name="Sacute" unicode="&#x15a;" horiz-adv-x="538" 
d="M266 -12q-78 0 -135.5 29.5t-98.5 85.5l73 67q31 -43 71 -66t91 -23q124 0 124 114q0 46 -22 70.5t-76 37.5l-57 12q-94 21 -138.5 67.5t-44.5 130.5q0 97 58.5 147t163.5 50q75 0 126.5 -25.5t89.5 -79.5l-73 -64q-27 38 -60.5 57t-84.5 19q-57 0 -85.5 -23.5
t-28.5 -77.5q0 -44 22.5 -66.5t73.5 -34.5l57 -13q50 -11 85 -27.5t57.5 -40.5t32.5 -56.5t10 -75.5q0 -105 -60.5 -159.5t-170.5 -54.5zM281 749l-63 31l84 182l90 -46z" />
    <glyph glyph-name="sacute" unicode="&#x15b;" horiz-adv-x="446" 
d="M222 -12q-65 0 -112.5 24.5t-82.5 71.5l66 61q26 -37 57 -55.5t73 -18.5q41 0 63 18.5t22 54.5q0 28 -14 45t-51 24l-45 8q-79 14 -116 49t-37 104q0 81 47 119.5t129 38.5q60 0 102.5 -20.5t74.5 -59.5l-62 -61q-21 29 -50.5 43.5t-63.5 14.5q-78 0 -78 -71
q0 -31 16 -46t51 -21l46 -9q81 -14 115.5 -49.5t34.5 -97.5q0 -79 -48 -123t-137 -44zM232 582l-63 31l84 182l90 -46z" />
    <glyph glyph-name="Scircumflex" unicode="&#x15c;" horiz-adv-x="538" 
d="M266 -12q-78 0 -135.5 29.5t-98.5 85.5l73 67q31 -43 71 -66t91 -23q124 0 124 114q0 46 -22 70.5t-76 37.5l-57 12q-94 21 -138.5 67.5t-44.5 130.5q0 97 58.5 147t163.5 50q75 0 126.5 -25.5t89.5 -79.5l-73 -64q-27 38 -60.5 57t-84.5 19q-57 0 -85.5 -23.5
t-28.5 -77.5q0 -44 22.5 -66.5t73.5 -34.5l57 -13q50 -11 85 -27.5t57.5 -40.5t32.5 -56.5t10 -75.5q0 -105 -60.5 -159.5t-170.5 -54.5zM321 944l113 -151l-53 -41l-110 118l-110 -118l-53 41l113 151h100z" />
    <glyph glyph-name="scircumflex" unicode="&#x15d;" horiz-adv-x="446" 
d="M222 -12q-65 0 -112.5 24.5t-82.5 71.5l66 61q26 -37 57 -55.5t73 -18.5q41 0 63 18.5t22 54.5q0 28 -14 45t-51 24l-45 8q-79 14 -116 49t-37 104q0 81 47 119.5t129 38.5q60 0 102.5 -20.5t74.5 -59.5l-62 -61q-21 29 -50.5 43.5t-63.5 14.5q-78 0 -78 -71
q0 -31 16 -46t51 -21l46 -9q81 -14 115.5 -49.5t34.5 -97.5q0 -79 -48 -123t-137 -44zM272 778l113 -151l-53 -41l-110 118l-110 -118l-53 41l113 151h100z" />
    <glyph glyph-name="Scedilla" unicode="&#x15e;" horiz-adv-x="543" 
d="M279 -208q-71 0 -102 42l37 44q25 -26 59 -26q23 0 32.5 7.5t9.5 24.5t-9.5 24.5t-32.5 7.5h-48l13 73q-66 5 -116.5 34t-87.5 80l73 67q31 -43 71 -66t91 -23q124 0 124 114q0 46 -22 70.5t-76 37.5l-57 12q-94 21 -138.5 67.5t-44.5 130.5q0 97 58.5 147t163.5 50
q75 0 126.5 -25.5t89.5 -79.5l-73 -64q-27 38 -60.5 57t-84.5 19q-57 0 -85.5 -23.5t-28.5 -77.5q0 -44 22.5 -66.5t73.5 -34.5l57 -13q50 -11 85 -27.5t57.5 -40.5t32.5 -56.5t10 -75.5q0 -99 -54 -153.5t-154 -59.5l-11 -58h9q13 18 38 18q61 0 61 -71q0 -42 -28 -64
t-81 -22z" />
    <glyph glyph-name="scedilla" unicode="&#x15f;" horiz-adv-x="446" 
d="M232 -208q-71 0 -102 42l37 44q25 -26 59 -26q23 0 32.5 7.5t9.5 24.5t-9.5 24.5t-32.5 7.5h-48l14 74q-54 5 -94.5 29t-70.5 65l66 61q26 -37 57 -55.5t73 -18.5q41 0 63 18.5t22 54.5q0 28 -14 45t-51 24l-45 8q-79 14 -116 49t-37 104q0 81 47 119.5t129 38.5
q60 0 102.5 -20.5t74.5 -59.5l-62 -61q-21 29 -50.5 43.5t-63.5 14.5q-78 0 -78 -71q0 -31 16 -46t51 -21l46 -9q81 -14 115.5 -49.5t34.5 -97.5q0 -74 -42.5 -117.5t-120.5 -48.5l-11 -58h9q13 18 38 18q61 0 61 -71q0 -42 -28 -64t-81 -22z" />
    <glyph glyph-name="Scaron" unicode="&#x160;" horiz-adv-x="538" 
d="M266 -12q-78 0 -135.5 29.5t-98.5 85.5l73 67q31 -43 71 -66t91 -23q124 0 124 114q0 46 -22 70.5t-76 37.5l-57 12q-94 21 -138.5 67.5t-44.5 130.5q0 97 58.5 147t163.5 50q75 0 126.5 -25.5t89.5 -79.5l-73 -64q-27 38 -60.5 57t-84.5 19q-57 0 -85.5 -23.5
t-28.5 -77.5q0 -44 22.5 -66.5t73.5 -34.5l57 -13q50 -11 85 -27.5t57.5 -40.5t32.5 -56.5t10 -75.5q0 -105 -60.5 -159.5t-170.5 -54.5zM221 760l-113 151l53 41l110 -118l110 118l53 -41l-113 -151h-100z" />
    <glyph glyph-name="scaron" unicode="&#x161;" horiz-adv-x="446" 
d="M222 -12q-65 0 -112.5 24.5t-82.5 71.5l66 61q26 -37 57 -55.5t73 -18.5q41 0 63 18.5t22 54.5q0 28 -14 45t-51 24l-45 8q-79 14 -116 49t-37 104q0 81 47 119.5t129 38.5q60 0 102.5 -20.5t74.5 -59.5l-62 -61q-21 29 -50.5 43.5t-63.5 14.5q-78 0 -78 -71
q0 -31 16 -46t51 -21l46 -9q81 -14 115.5 -49.5t34.5 -97.5q0 -79 -48 -123t-137 -44zM172 590l-113 151l53 41l110 -118l110 118l53 -41l-113 -151h-100z" />
    <glyph glyph-name="Tcommaaccent" unicode="&#x162;" horiz-adv-x="521" 
d="M314 605v-605h-106v605h-185v93h476v-93h-185zM261 -57q58 0 58 -48v-18q0 -37 -16 -72.5t-45 -62.5h-67q24 23 37 43t18 44q-43 4 -43 48v18q0 48 58 48z" />
    <glyph glyph-name="tcommaaccent" unicode="&#x163;" horiz-adv-x="328" 
d="M198 0q-54 0 -78.5 24t-24.5 78v333h-72v85h40q25 0 33.5 11.5t8.5 36.5v94h93v-142h97v-85h-97v-350h90v-85h-90zM195 -57q58 0 58 -48v-18q0 -37 -16 -72.5t-45 -62.5h-67q24 23 37 43t18 44q-43 4 -43 48v18q0 48 58 48z" />
    <glyph glyph-name="Tcaron" unicode="&#x164;" horiz-adv-x="521" 
d="M314 605v-605h-106v605h-185v93h476v-93h-185zM212 760l-113 151l53 41l110 -118l110 118l53 -41l-113 -151h-100z" />
    <glyph glyph-name="tcaron" unicode="&#x165;" horiz-adv-x="328" 
d="M198 0q-54 0 -78.5 24t-24.5 78v333h-72v85h40q25 0 33.5 11.5t8.5 36.5v94h93v-142h97v-85h-97v-350h90v-85h-90zM316 570h-63l8 198h109z" />
    <glyph glyph-name="Tbar" unicode="&#x166;" horiz-adv-x="525" 
d="M314 315v-315h-106v315h-132v81h132v209h-185v93h476v-93h-185v-209h132v-81h-132z" />
    <glyph glyph-name="tbar" unicode="&#x167;" horiz-adv-x="337" 
d="M288 0h-90q-54 0 -78.5 24t-24.5 78v142h-56v68h56v123h-72v85h40q25 0 33.5 11.5t8.5 36.5v94h93v-142h97v-85h-97v-123h84v-68h-84v-159h90v-85z" />
    <glyph glyph-name="Utilde" unicode="&#x168;" horiz-adv-x="619" 
d="M177 698v-452q0 -84 29 -124t103 -40t103 40t29 124v452h106v-435q0 -71 -12.5 -123t-40.5 -86t-73.5 -50t-111.5 -16t-111.5 16t-73.5 50t-40.5 86t-12.5 123v435h106zM378 775q-17 0 -32.5 4.5t-41.5 19.5q-25 14 -39.5 19.5t-25.5 5.5q-17 0 -28 -7t-25 -20l-38 49
q17 26 40 40.5t52 14.5q17 0 32.5 -4.5t41.5 -19.5q25 -14 39.5 -19.5t25.5 -5.5q17 0 28 7t25 20l38 -49q-17 -26 -40 -40.5t-52 -14.5z" />
    <glyph glyph-name="utilde" unicode="&#x169;" horiz-adv-x="525" 
d="M352 86h-13q-31 -98 -129 -98q-69 0 -107.5 47.5t-38.5 139.5v345h103v-331q0 -113 88 -113q40 0 68.5 24.5t28.5 68.5v351h103v-520h-103v86zM330 609q-17 0 -32.5 4.5t-41.5 19.5q-25 14 -39.5 19.5t-25.5 5.5q-17 0 -28 -7t-25 -20l-38 49q17 26 40 40.5t52 14.5
q17 0 32.5 -4.5t41.5 -19.5q25 -14 39.5 -19.5t25.5 -5.5q17 0 28 7t25 20l38 -49q-17 -26 -40 -40.5t-52 -14.5z" />
    <glyph glyph-name="Umacron" unicode="&#x16a;" horiz-adv-x="619" 
d="M177 698v-452q0 -84 29 -124t103 -40t103 40t29 124v452h106v-435q0 -71 -12.5 -123t-40.5 -86t-73.5 -50t-111.5 -16t-111.5 16t-73.5 50t-40.5 86t-12.5 123v435h106zM177 879h264v-80h-264v80z" />
    <glyph glyph-name="umacron" unicode="&#x16b;" horiz-adv-x="525" 
d="M352 86h-13q-31 -98 -129 -98q-69 0 -107.5 47.5t-38.5 139.5v345h103v-331q0 -113 88 -113q40 0 68.5 24.5t28.5 68.5v351h103v-520h-103v86zM129 713h264v-80h-264v80z" />
    <glyph glyph-name="Ubreve" unicode="&#x16c;" horiz-adv-x="619" 
d="M177 698v-452q0 -84 29 -124t103 -40t103 40t29 124v452h106v-435q0 -71 -12.5 -123t-40.5 -86t-73.5 -50t-111.5 -16t-111.5 16t-73.5 50t-40.5 86t-12.5 123v435h106zM309 755q-29 0 -52 7.5t-42 24.5t-34 44.5t-29 68.5l57 29l19 -37q18 -35 36 -48t45 -13t45.5 13
t35.5 48l19 37l57 -29q-14 -41 -29.5 -68.5t-34.5 -44.5t-42 -24.5t-51 -7.5z" />
    <glyph glyph-name="ubreve" unicode="&#x16d;" horiz-adv-x="525" 
d="M352 86h-13q-31 -98 -129 -98q-69 0 -107.5 47.5t-38.5 139.5v345h103v-331q0 -113 88 -113q40 0 68.5 24.5t28.5 68.5v351h103v-520h-103v86zM261 589q-29 0 -52 7.5t-42 24.5t-34 44.5t-29 68.5l57 29l19 -37q18 -35 36 -48t45 -13t45.5 13t35.5 48l19 37l57 -29
q-14 -41 -29.5 -68.5t-34.5 -44.5t-42 -24.5t-51 -7.5z" />
    <glyph glyph-name="Uring" unicode="&#x16e;" horiz-adv-x="619" 
d="M177 698v-452q0 -84 29 -124t103 -40t103 40t29 124v452h106v-435q0 -71 -12.5 -123t-40.5 -86t-73.5 -50t-111.5 -16t-111.5 16t-73.5 50t-40.5 86t-12.5 123v435h106zM309 734q-58 0 -91 35t-33 92t33 92t91 35t91 -35t33 -92t-33 -92t-91 -35zM309 792q24 0 38.5 12
t14.5 36v43q0 24 -14.5 36t-38.5 12t-38.5 -12t-14.5 -36v-43q0 -24 14.5 -36t38.5 -12z" />
    <glyph glyph-name="uring" unicode="&#x16f;" horiz-adv-x="525" 
d="M352 86h-13q-31 -98 -129 -98q-69 0 -107.5 47.5t-38.5 139.5v345h103v-331q0 -113 88 -113q40 0 68.5 24.5t28.5 68.5v351h103v-520h-103v86zM261 568q-58 0 -91 35t-33 92t33 92t91 35t91 -35t33 -92t-33 -92t-91 -35zM261 626q24 0 38.5 12t14.5 36v43q0 24 -14.5 36
t-38.5 12t-38.5 -12t-14.5 -36v-43q0 -24 14.5 -36t38.5 -12z" />
    <glyph glyph-name="Uhungarumlaut" unicode="&#x170;" horiz-adv-x="619" 
d="M177 698v-452q0 -84 29 -124t103 -40t103 40t29 124v452h106v-435q0 -71 -12.5 -123t-40.5 -86t-73.5 -50t-111.5 -16t-111.5 16t-73.5 50t-40.5 86t-12.5 123v435h106zM235 749l-58 30l84 181l84 -43zM400 749l-59 30l85 181l84 -43z" />
    <glyph glyph-name="uhungarumlaut" unicode="&#x171;" horiz-adv-x="525" 
d="M352 86h-13q-31 -98 -129 -98q-69 0 -107.5 47.5t-38.5 139.5v345h103v-331q0 -113 88 -113q40 0 68.5 24.5t28.5 68.5v351h103v-520h-103v86zM187 582l-58 30l84 181l84 -43zM352 582l-59 30l85 181l84 -43z" />
    <glyph glyph-name="Uogonek" unicode="&#x172;" horiz-adv-x="619" 
d="M177 698v-452q0 -84 29 -124t103 -40t103 40t29 124v452h106v-435q0 -81 -19 -138.5t-70 -105.5q-32 -30 -52 -50t-31.5 -35t-15.5 -26.5t-4 -22.5q0 -33 35 -33q29 0 47 23l39 -40q-15 -20 -41 -32t-54 -12q-50 0 -76 19.5t-26 55.5q0 15 5.5 29.5t19 29t34.5 30.5
t53 35l-2 9q-18 -5 -37.5 -8t-42.5 -3q-66 0 -111 16t-73.5 50t-41 86t-12.5 123v435h106z" />
    <glyph glyph-name="uogonek" unicode="&#x173;" horiz-adv-x="525" 
d="M477 -165q-15 -20 -41 -32t-54 -12q-50 0 -76 19.5t-26 55.5t31.5 67.5t91.5 57.5l-2 9h-49v86h-13q-31 -98 -129 -98q-69 0 -107.5 47.5t-38.5 139.5v345h103v-331q0 -113 88 -113q40 0 68.5 24.5t28.5 68.5v351h103v-520q-55 -36 -77 -62t-22 -53q0 -33 35 -33
q29 0 47 23l39 -40v0z" />
    <glyph glyph-name="Wcircumflex" unicode="&#x174;" horiz-adv-x="840" 
d="M170 0l-148 698h108l82 -423l22 -162h13l22 160l88 425h129l89 -425l22 -160h13l22 162l82 423h104l-153 -698h-127l-90 430l-22 161h-12l-22 -161l-94 -430h-128zM470 944l113 -151l-53 -41l-110 118l-110 -118l-53 41l113 151h100z" />
    <glyph glyph-name="wcircumflex" unicode="&#x175;" horiz-adv-x="723" 
d="M21 520h100l51 -237l32 -190h12l38 190l56 237h108l57 -237l38 -190h11l32 190l53 237h95l-125 -520h-121l-61 253l-28 168h-12l-29 -168l-61 -253h-121zM411 778l113 -151l-53 -41l-110 118l-110 -118l-53 41l113 151h100z" />
    <glyph glyph-name="Ycircumflex" unicode="&#x176;" horiz-adv-x="553" 
d="M224 0v270l-216 428h119l145 -312h13l143 312h117l-215 -428v-270h-106zM328 944l113 -151l-53 -41l-110 118l-110 -118l-53 41l113 151h100z" />
    <glyph glyph-name="ycircumflex" unicode="&#x177;" horiz-adv-x="470" 
d="M354 520h102l-201 -638q-8 -24 -17.5 -40t-23 -25.5t-32.5 -13t-44 -3.5h-72v85h94l24 87l-173 548h105l78 -273l36 -158h11l36 158zM286 778l113 -151l-53 -41l-110 118l-110 -118l-53 41l113 151h100z" />
    <glyph glyph-name="Ydieresis" unicode="&#x178;" horiz-adv-x="553" 
d="M224 0v270l-216 428h119l145 -312h13l143 312h117l-215 -428v-270h-106zM187 780q-32 0 -46.5 13t-14.5 36v21q0 23 14.5 36t46.5 13t46.5 -13t14.5 -36v-21q0 -23 -14.5 -36t-46.5 -13zM369 780q-32 0 -46.5 13t-14.5 36v21q0 23 14.5 36t46.5 13t46.5 -13t14.5 -36v-21
q0 -23 -14.5 -36t-46.5 -13z" />
    <glyph glyph-name="Zacute" unicode="&#x179;" horiz-adv-x="534" 
d="M500 0h-466v95l335 510h-319v93h439v-95l-335 -510h346v-93zM280 749l-63 31l84 182l90 -46z" />
    <glyph glyph-name="zacute" unicode="&#x17a;" horiz-adv-x="440" 
d="M33 0v80l249 355h-241v85h360v-80l-251 -355h258v-85h-375zM231 582l-63 31l84 182l90 -46z" />
    <glyph glyph-name="Zdotaccent" unicode="&#x17b;" horiz-adv-x="534" 
d="M500 0h-466v95l335 510h-319v93h439v-95l-335 -510h346v-93zM270 780q-32 0 -46.5 13t-14.5 36v21q0 23 14.5 36t46.5 13t46.5 -13t14.5 -36v-21q0 -23 -14.5 -36t-46.5 -13z" />
    <glyph glyph-name="zdotaccent" unicode="&#x17c;" horiz-adv-x="440" 
d="M33 0v80l249 355h-241v85h360v-80l-251 -355h258v-85h-375zM221 611q-32 0 -46.5 13t-14.5 36v21q0 23 14.5 36t46.5 13t46.5 -13t14.5 -36v-21q0 -23 -14.5 -36t-46.5 -13z" />
    <glyph glyph-name="Zcaron" unicode="&#x17d;" horiz-adv-x="534" 
d="M500 0h-466v95l335 510h-319v93h439v-95l-335 -510h346v-93zM220 760l-113 151l53 41l110 -118l110 118l53 -41l-113 -151h-100z" />
    <glyph glyph-name="zcaron" unicode="&#x17e;" horiz-adv-x="440" 
d="M33 0v80l249 355h-241v85h360v-80l-251 -355h258v-85h-375zM171 590l-113 151l53 41l110 -118l110 118l53 -41l-113 -151h-100z" />
    <glyph glyph-name="uni018F" unicode="&#x18f;" horiz-adv-x="641" 
d="M320 -12q-63 0 -113 20.5t-85.5 64.5t-54 112.5t-18.5 163.5v30h429v42q0 195 -158 195q-65 0 -101.5 -32t-53.5 -95l-93 36q12 41 32.5 75t51.5 58.5t72 38t92 13.5q63 0 113 -20.5t85.5 -64.5t54 -112.5t18.5 -163.5t-18.5 -163.5t-54 -112.5t-85.5 -64.5t-113 -20.5z
M162 272q0 -94 39.5 -142t118.5 -48t118.5 48t39.5 142v21h-316v-21z" />
    <glyph glyph-name="florin" unicode="&#x192;" horiz-adv-x="436" 
d="M10 -49h116l29 334h-111l9 88h111l19 215q5 57 32.5 83.5t90.5 26.5h114l-9 -85h-122l-22 -240h132l-9 -88h-131l-28 -309q-5 -57 -32 -83.5t-91 -26.5h-107z" />
    <glyph glyph-name="Ohorn" unicode="&#x1a0;" horiz-adv-x="640" 
d="M606 806v-103q0 -43 -15 -58.5t-59 -15.5h-96v-10q83 -13 119 -77.5t36 -192.5q0 -95 -18.5 -163.5t-54 -112.5t-85.5 -64.5t-113 -20.5t-113 20.5t-85.5 64.5t-54 112.5t-18.5 163.5t18.5 163.5t54 112.5t85.5 64.5t113 20.5q48 0 89 -12h111v108h86zM320 82
q75 0 116 48.5t41 134.5v168q0 86 -41 134.5t-116 48.5t-116 -48.5t-41 -134.5v-168q0 -86 41 -134.5t116 -48.5z" />
    <glyph glyph-name="ohorn" unicode="&#x1a1;" horiz-adv-x="506" 
d="M489 628v-103q0 -35 -15.5 -51t-58.5 -16h-66v-11q59 -7 89.5 -54.5t30.5 -132.5q0 -71 -15 -122.5t-43.5 -84.5t-68.5 -49t-89 -16q-50 0 -89.5 16t-68 49t-43.5 84.5t-15 122.5t15 122.5t43.5 84.5t68 49t89.5 16q43 0 79 -12h71v108h86zM253 74q52 0 79.5 31t27.5 94
v122q0 63 -27.5 94t-79.5 31t-79.5 -31t-27.5 -94v-122q0 -63 27.5 -94t79.5 -31z" />
    <glyph glyph-name="Uhorn" unicode="&#x1af;" horiz-adv-x="629" 
d="M547 263q0 -71 -12.5 -123t-40.5 -86t-73.5 -50t-111.5 -16t-111.5 16t-73.5 50t-40.5 86t-12.5 123v435h106v-452q0 -84 29 -124t103 -40t103 40t29 124v452h94v108h86v-103q0 -20 -3 -33t-11 -21.5t-22.5 -12t-37.5 -4.5v-369v0z" />
    <glyph glyph-name="uhorn" unicode="&#x1b0;" horiz-adv-x="535" 
d="M339 86q-31 -98 -129 -98q-69 0 -107.5 47.5t-38.5 139.5v345h103v-331q0 -113 88 -113q40 0 68.5 24.5t28.5 68.5v351h93v108h86v-103q0 -20 -3 -33t-10.5 -21.5t-20.5 -12t-34 -4.5h-8v-454h-103v86h-13v0z" />
    <glyph glyph-name="Aringacute" unicode="&#x1fa;" horiz-adv-x="596" 
d="M468 0l-54 193h-235l-54 -193h-104l209 698h135l210 -698h-107zM324 500l-22 102h-13l-22 -102l-62 -220h184zM296 980l-41 36l96 120l60 -51zM299 731q-58 0 -91 31.5t-33 85.5t33 85.5t91 31.5t91 -31.5t33 -85.5t-33 -85.5t-91 -31.5zM299 786q24 0 39 12.5t15 35.5
v28q0 23 -15 35.5t-39 12.5t-39 -12.5t-15 -35.5v-28q0 -23 15 -35.5t39 -12.5z" />
    <glyph glyph-name="aringacute" unicode="&#x1fb;" horiz-adv-x="497" 
d="M404 0q-38 0 -59 21t-21 66h-12q-11 -47 -45.5 -73t-84.5 -26q-74 0 -110.5 39.5t-36.5 111.5q0 78 50 119t147 41h86v50q0 50 -22 73.5t-70 23.5q-37 0 -63.5 -16t-48.5 -54l-61 56q26 44 70.5 72t109.5 28q94 0 141 -45.5t47 -133.5v-268h49v-85h-66zM216 68
q22 0 40.5 7t32 19t21.5 28.5t8 35.5v72h-81q-97 0 -97 -70v-24q0 -35 20.5 -51.5t55.5 -16.5zM233 814l-41 36l96 120l60 -51zM236 565q-58 0 -91 31.5t-33 85.5t33 85.5t91 31.5t91 -31.5t33 -85.5t-33 -85.5t-91 -31.5zM236 620q24 0 39 12.5t15 35.5v28q0 23 -15 35.5
t-39 12.5t-39 -12.5t-15 -35.5v-28q0 -23 15 -35.5t39 -12.5z" />
    <glyph glyph-name="AEacute" unicode="&#x1fc;" horiz-adv-x="843" 
d="M385 192h-192l-83 -192h-108l310 698h478v-93h-299v-204h270v-92h-270v-216h299v-93h-405v192zM370 605l-140 -326h155v326h-15zM539 749l-63 31l84 182l90 -46z" />
    <glyph glyph-name="aeacute" unicode="&#x1fd;" horiz-adv-x="783" 
d="M237 233q-50 0 -73.5 -19.5t-23.5 -53.5v-24q0 -35 20.5 -51.5t55.5 -16.5q22 0 41 7t33.5 19t23 28.5t8.5 35.5v75h-85zM636 301v23q0 126 -101 126q-52 0 -80 -31.5t-28 -94.5v-23h209zM545 73q47 0 77.5 21t51.5 59l60 -57q-28 -49 -75.5 -78.5t-117.5 -29.5
q-29 0 -56 8t-49 22.5t-38 35t-22 46.5h-12q-13 -50 -61 -81t-120 -31q-75 0 -111.5 39.5t-36.5 111.5q0 78 50 120t147 42h90v48q0 97 -96 97q-37 0 -63.5 -16t-48.5 -54l-61 56q26 44 70.5 72t109.5 28q52 0 90.5 -27.5t47.5 -84.5h12q11 53 53.5 82.5t98.5 29.5
q99 0 154.5 -65t55.5 -207v-27h-318v-32q0 -62 31.5 -95t86.5 -33zM397 582l-63 31l84 182l90 -46z" />
    <glyph glyph-name="Oslashacute" unicode="&#x1fe;" horiz-adv-x="640" 
d="M320 -12q-89 0 -149 41l-47 -77l-68 44l55 90q-30 45 -46 109.5t-16 153.5q0 95 18.5 163.5t54 112.5t85.5 64.5t113 20.5q89 0 149 -41l47 77l68 -44l-55 -90q30 -45 46 -109.5t16 -153.5q0 -95 -18.5 -163.5t-54 -112.5t-85.5 -64.5t-113 -20.5zM175 172l142 241
l107 172q-42 34 -104 34q-78 0 -119 -48.5t-41 -136.5v-161l2 -101h13zM216 113q42 -34 104 -34q78 0 119 48.5t41 136.5v162l-2 100h-13l-142 -241zM330 749l-63 31l84 182l90 -46z" />
    <glyph glyph-name="oslashacute" unicode="&#x1ff;" horiz-adv-x="509" 
d="M253 -12q-77 0 -127 38l-51 -67l-56 42l58 78q-40 66 -40 181q0 71 15 122.5t43.5 84.5t68 49t89.5 16q77 0 127 -38l51 67l56 -42l-58 -78q40 -66 40 -181q0 -71 -15 -122.5t-43.5 -84.5t-68.5 -49t-89 -16zM147 158l68 103l116 160q-27 27 -78 27q-53 0 -81 -30.5
t-28 -93.5v-70l-7 -96h10zM175 99q27 -27 78 -27q53 0 81 30.5t28 93.5v70l7 96h-10l-68 -103zM265 582l-63 31l84 182l90 -46z" />
    <glyph glyph-name="Scommaaccent" unicode="&#x218;" horiz-adv-x="538" 
d="M266 -12q-78 0 -135.5 29.5t-98.5 85.5l73 67q31 -43 71 -66t91 -23q124 0 124 114q0 46 -22 70.5t-76 37.5l-57 12q-94 21 -138.5 67.5t-44.5 130.5q0 97 58.5 147t163.5 50q75 0 126.5 -25.5t89.5 -79.5l-73 -64q-27 38 -60.5 57t-84.5 19q-57 0 -85.5 -23.5
t-28.5 -77.5q0 -44 22.5 -66.5t73.5 -34.5l57 -13q50 -11 85 -27.5t57.5 -40.5t32.5 -56.5t10 -75.5q0 -105 -60.5 -159.5t-170.5 -54.5zM265 -57q58 0 58 -48v-18q0 -37 -16 -72.5t-45 -62.5h-67q24 23 37 43t18 44q-43 4 -43 48v18q0 48 58 48z" />
    <glyph glyph-name="scommaaccent" unicode="&#x219;" horiz-adv-x="446" 
d="M222 -12q-65 0 -112.5 24.5t-82.5 71.5l66 61q26 -37 57 -55.5t73 -18.5q41 0 63 18.5t22 54.5q0 28 -14 45t-51 24l-45 8q-79 14 -116 49t-37 104q0 81 47 119.5t129 38.5q60 0 102.5 -20.5t74.5 -59.5l-62 -61q-21 29 -50.5 43.5t-63.5 14.5q-78 0 -78 -71
q0 -31 16 -46t51 -21l46 -9q81 -14 115.5 -49.5t34.5 -97.5q0 -79 -48 -123t-137 -44zM223 -57q58 0 58 -48v-18q0 -37 -16 -72.5t-45 -62.5h-67q24 23 37 43t18 44q-43 4 -43 48v18q0 48 58 48z" />
    <glyph glyph-name="uni021A" unicode="&#x21a;" horiz-adv-x="521" 
d="M314 605v-605h-106v605h-185v93h476v-93h-185zM261 -57q58 0 58 -48v-18q0 -37 -16 -72.5t-45 -62.5h-67q24 23 37 43t18 44q-43 4 -43 48v18q0 48 58 48z" />
    <glyph glyph-name="uni021B" unicode="&#x21b;" horiz-adv-x="328" 
d="M198 0q-54 0 -78.5 24t-24.5 78v333h-72v85h40q25 0 33.5 11.5t8.5 36.5v94h93v-142h97v-85h-97v-350h90v-85h-90zM195 -57q58 0 58 -48v-18q0 -37 -16 -72.5t-45 -62.5h-67q24 23 37 43t18 44q-43 4 -43 48v18q0 48 58 48z" />
    <glyph glyph-name="uni0237" unicode="&#x237;" horiz-adv-x="244" 
d="M-2 -115h73v635h103v-607q0 -58 -26.5 -85.5t-87.5 -27.5h-62v85z" />
    <glyph glyph-name="uni0259" unicode="&#x259;" horiz-adv-x="501" 
d="M355 286v33q0 62 -31.5 95t-86.5 33q-47 0 -77.5 -21t-51.5 -59l-60 57q28 49 75.5 78.5t117.5 29.5q49 0 90 -16t70 -49.5t45.5 -85t16.5 -121.5q0 -71 -15 -122.5t-43.5 -84.5t-68.5 -49t-89 -16q-99 0 -154.5 65t-55.5 207v26h318zM146 196q0 -126 101 -126
q52 0 80 31.5t28 94.5v21h-209v-21z" />
    <glyph glyph-name="uni02BB" unicode="&#x2bb;" 
d="M270 587q-59 0 -59 48v19q0 37 16.5 72t45.5 63h66q-22 -23 -35 -42.5t-20 -45.5q24 -2 34.5 -14t10.5 -33v-19q0 -48 -59 -48z" />
    <glyph glyph-name="uni02BC" unicode="&#x2bc;" 
d="M334 542h-63l8 198h109z" />
    <glyph glyph-name="circumflex" unicode="&#x2c6;" 
d="M320 778l113 -151l-53 -41l-110 118l-110 -118l-53 41l113 151h100z" />
    <glyph glyph-name="caron" unicode="&#x2c7;" 
d="M220 590l-113 151l53 41l110 -118l110 118l53 -41l-113 -151h-100z" />
    <glyph glyph-name="breve" unicode="&#x2d8;" 
d="M270 589q-29 0 -52 7.5t-42 24.5t-34 44.5t-29 68.5l57 29l19 -37q18 -35 36 -48t45 -13t45.5 13t35.5 48l19 37l57 -29q-14 -41 -29.5 -68.5t-34.5 -44.5t-42 -24.5t-51 -7.5z" />
    <glyph glyph-name="dotaccent" unicode="&#x2d9;" 
d="M270 611q-32 0 -46.5 13t-14.5 36v21q0 23 14.5 36t46.5 13t46.5 -13t14.5 -36v-21q0 -23 -14.5 -36t-46.5 -13z" />
    <glyph glyph-name="ring" unicode="&#x2da;" 
d="M270 568q-58 0 -91 35t-33 92t33 92t91 35t91 -35t33 -92t-33 -92t-91 -35zM270 626q24 0 38.5 12t14.5 36v43q0 24 -14.5 36t-38.5 12t-38.5 -12t-14.5 -36v-43q0 -24 14.5 -36t38.5 -12z" />
    <glyph glyph-name="ogonek" unicode="&#x2db;" 
d="M197 -209q-50 0 -76 19.5t-26 55.5t28.5 68t84.5 57v31h53l9 -22q-55 -36 -77 -62t-22 -53q0 -33 35 -33q29 0 47 23l39 -40q-15 -20 -41 -32t-54 -12z" />
    <glyph glyph-name="tilde" unicode="&#x2dc;" 
d="M339 609q-17 0 -32.5 4.5t-41.5 19.5q-25 14 -39.5 19.5t-25.5 5.5q-17 0 -28 -7t-25 -20l-38 49q17 26 40 40.5t52 14.5q17 0 32.5 -4.5t41.5 -19.5q25 -14 39.5 -19.5t25.5 -5.5q17 0 28 7t25 20l38 -49q-17 -26 -40 -40.5t-52 -14.5z" />
    <glyph glyph-name="hungarumlaut" unicode="&#x2dd;" 
d="M196 582l-58 30l84 181l84 -43zM361 582l-59 30l85 181l84 -43z" />
    <glyph glyph-name="uni0300" unicode="&#x300;" horiz-adv-x="0" 
d="M-120 749l90 46l84 -182l-63 -31z" />
    <glyph glyph-name="uni0301" unicode="&#x301;" horiz-adv-x="0" 
d="M11 582l-63 31l84 182l90 -46z" />
    <glyph glyph-name="uni0302" unicode="&#x302;" horiz-adv-x="0" 
d="M51 778l113 -151l-53 -41l-110 118l-110 -118l-53 41l113 151h100z" />
    <glyph glyph-name="uni0303" unicode="&#x303;" horiz-adv-x="0" 
d="M70 609q-17 0 -32.5 4.5t-41.5 19.5q-25 14 -39.5 19.5t-25.5 5.5q-17 0 -28 -7t-25 -20l-38 49q17 26 40 40.5t52 14.5q17 0 32.5 -4.5t41.5 -19.5q25 -14 39.5 -19.5t25.5 -5.5q17 0 28 7t25 20l38 -49q-17 -26 -40 -40.5t-52 -14.5z" />
    <glyph glyph-name="uni0304" unicode="&#x304;" horiz-adv-x="0" 
d="M-131 713h264v-80h-264v80z" />
    <glyph glyph-name="uni0306" unicode="&#x306;" horiz-adv-x="0" 
d="M1 589q-29 0 -52 7.5t-42 24.5t-34 44.5t-29 68.5l57 29l19 -37q18 -35 36 -48t45 -13t45.5 13t35.5 48l19 37l57 -29q-14 -41 -29.5 -68.5t-34.5 -44.5t-42 -24.5t-51 -7.5z" />
    <glyph glyph-name="uni0307" unicode="&#x307;" horiz-adv-x="0" 
d="M1 611q-32 0 -46.5 13t-14.5 36v21q0 23 14.5 36t46.5 13t46.5 -13t14.5 -36v-21q0 -23 -14.5 -36t-46.5 -13z" />
    <glyph glyph-name="uni0308" unicode="&#x308;" horiz-adv-x="0" 
d="M-90 612q-32 0 -46.5 13t-14.5 36v21q0 23 14.5 36t46.5 13t46.5 -13t14.5 -36v-21q0 -23 -14.5 -36t-46.5 -13zM92 612q-32 0 -46.5 13t-14.5 36v21q0 23 14.5 36t46.5 13t46.5 -13t14.5 -36v-21q0 -23 -14.5 -36t-46.5 -13z" />
    <glyph glyph-name="uni0309" unicode="&#x309;" horiz-adv-x="0" 
d="M-93 781h121q39 0 55.5 -15.5t16.5 -45.5q0 -24 -9 -46t-29 -51l-35 -49l-56 27l47 102h-111v78z" />
    <glyph glyph-name="uni030A" unicode="&#x30a;" horiz-adv-x="0" 
d="M1 568q-58 0 -91 35t-33 92t33 92t91 35t91 -35t33 -92t-33 -92t-91 -35zM1 626q24 0 38.5 12t14.5 36v43q0 24 -14.5 36t-38.5 12t-38.5 -12t-14.5 -36v-43q0 -24 14.5 -36t38.5 -12z" />
    <glyph glyph-name="uni030B" unicode="&#x30b;" horiz-adv-x="0" 
d="M-73 582l-58 30l84 181l84 -43zM92 582l-59 30l85 181l84 -43z" />
    <glyph glyph-name="uni030C" unicode="&#x30c;" horiz-adv-x="0" 
d="M-49 590l-113 151l53 41l110 -118l110 118l53 -41l-113 -151h-100z" />
    <glyph glyph-name="uni0312" unicode="&#x312;" horiz-adv-x="0" 
d="M1 587q-59 0 -59 48v19q0 37 16.5 72t45.5 63h66q-22 -23 -35 -42.5t-20 -45.5q24 -2 34.5 -14t10.5 -33v-19q0 -48 -59 -48z" />
    <glyph glyph-name="uni0315" unicode="&#x315;" horiz-adv-x="0" 
d="M65 542h-63l8 198h109z" />
    <glyph glyph-name="uni031B" unicode="&#x31b;" horiz-adv-x="0" 
d="M91 525q0 -41 -14.5 -56t-59.5 -15h-108v66h96v108h86v-103z" />
    <glyph glyph-name="uni0323" unicode="&#x323;" horiz-adv-x="0" 
d="M0 -180q-32 0 -46.5 12.5t-14.5 35.5v22q0 23 14.5 35.5t46.5 12.5t46.5 -12.5t14.5 -35.5v-22q0 -23 -14.5 -35.5t-46.5 -12.5z" />
    <glyph glyph-name="uni0326" unicode="&#x326;" horiz-adv-x="0" 
d="M0 -57q58 0 58 -48v-18q0 -37 -16 -72.5t-45 -62.5h-67q24 23 37 43t18 44q-43 4 -43 48v18q0 48 58 48z" />
    <glyph glyph-name="uni0327" unicode="&#x327;" horiz-adv-x="0" 
d="M13 -208q-71 0 -102 42l37 44q25 -26 59 -26q23 0 32.5 7.5t9.5 24.5t-9.5 24.5t-32.5 7.5h-48l19 103h53l-17 -88h9q13 18 38 18q61 0 61 -71q0 -42 -28 -64t-81 -22z" />
    <glyph glyph-name="uni0328" unicode="&#x328;" horiz-adv-x="0" 
d="M-72 -209q-50 0 -76 19.5t-26 55.5t28.5 68t84.5 57v31h53l9 -22q-55 -36 -77 -62t-22 -53q0 -33 35 -33q29 0 47 23l39 -40q-15 -20 -41 -32t-54 -12z" />
    <glyph glyph-name="pi" unicode="&#x3c0;" horiz-adv-x="565" 
d="M462 85h73v-85h-73q-54 0 -78.5 24t-24.5 78v333h-161v-435h-103v435h-73v85h513v-85h-73v-350z" />
    <glyph glyph-name="uni0E3F" unicode="&#xe3f;" horiz-adv-x="590" 
d="M334 -82h-83v103h-174v656h174v103h83v-103h26q80 0 121 -42t41 -127q0 -70 -29 -102t-84 -38v-11q30 -2 55 -10.5t43 -26t28 -44.5t10 -66q0 -88 -43.5 -138.5t-115.5 -50.5h-52v-103zM258 397v193h-81v-193h81zM327 397h22q68 0 68 73v47q0 73 -68 73h-22v-193z
M258 108v206h-81v-206h81zM327 108h34q37 0 58 19t21 59v50q0 40 -21 59t-58 19h-34v-206z" />
    <glyph glyph-name="Wgrave" unicode="&#x1e80;" horiz-adv-x="840" 
d="M170 0l-148 698h108l82 -423l22 -162h13l22 160l88 425h129l89 -425l22 -160h13l22 162l82 423h104l-153 -698h-127l-90 430l-22 161h-12l-22 -161l-94 -430h-128zM299 916l90 46l84 -182l-63 -31z" />
    <glyph glyph-name="wgrave" unicode="&#x1e81;" horiz-adv-x="723" 
d="M21 520h100l51 -237l32 -190h12l38 190l56 237h108l57 -237l38 -190h11l32 190l53 237h95l-125 -520h-121l-61 253l-28 168h-12l-29 -168l-61 -253h-121zM240 749l90 46l84 -182l-63 -31z" />
    <glyph glyph-name="Wacute" unicode="&#x1e82;" horiz-adv-x="840" 
d="M170 0l-148 698h108l82 -423l22 -162h13l22 160l88 425h129l89 -425l22 -160h13l22 162l82 423h104l-153 -698h-127l-90 430l-22 161h-12l-22 -161l-94 -430h-128zM430 749l-63 31l84 182l90 -46z" />
    <glyph glyph-name="wacute" unicode="&#x1e83;" horiz-adv-x="723" 
d="M21 520h100l51 -237l32 -190h12l38 190l56 237h108l57 -237l38 -190h11l32 190l53 237h95l-125 -520h-121l-61 253l-28 168h-12l-29 -168l-61 -253h-121zM371 582l-63 31l84 182l90 -46z" />
    <glyph glyph-name="Wdieresis" unicode="&#x1e84;" horiz-adv-x="840" 
d="M170 0l-148 698h108l82 -423l22 -162h13l22 160l88 425h129l89 -425l22 -160h13l22 162l82 423h104l-153 -698h-127l-90 430l-22 161h-12l-22 -161l-94 -430h-128zM329 780q-32 0 -46.5 13t-14.5 36v21q0 23 14.5 36t46.5 13t46.5 -13t14.5 -36v-21q0 -23 -14.5 -36
t-46.5 -13zM511 780q-32 0 -46.5 13t-14.5 36v21q0 23 14.5 36t46.5 13t46.5 -13t14.5 -36v-21q0 -23 -14.5 -36t-46.5 -13z" />
    <glyph glyph-name="wdieresis" unicode="&#x1e85;" horiz-adv-x="723" 
d="M21 520h100l51 -237l32 -190h12l38 190l56 237h108l57 -237l38 -190h11l32 190l53 237h95l-125 -520h-121l-61 253l-28 168h-12l-29 -168l-61 -253h-121zM270 612q-32 0 -46.5 13t-14.5 36v21q0 23 14.5 36t46.5 13t46.5 -13t14.5 -36v-21q0 -23 -14.5 -36t-46.5 -13z
M452 612q-32 0 -46.5 13t-14.5 36v21q0 23 14.5 36t46.5 13t46.5 -13t14.5 -36v-21q0 -23 -14.5 -36t-46.5 -13z" />
    <glyph glyph-name="uni1E9E" unicode="&#x1e9e;" horiz-adv-x="644" 
d="M607 203q0 -108 -54 -161.5t-147 -53.5q-64 0 -107 21.5t-72 66.5l68 64q20 -29 45.5 -46.5t65.5 -17.5q44 0 68 25.5t24 68.5v62q0 43 -27 66.5t-78 23.5h-80v90l139 193h-269v-605h-106v698h482v-100l-138 -187v-6q84 -2 135 -52.5t51 -149.5z" />
    <glyph glyph-name="uni1EA0" unicode="&#x1ea0;" horiz-adv-x="596" 
d="M468 0l-54 193h-235l-54 -193h-104l209 698h135l210 -698h-107zM324 500l-22 102h-13l-22 -102l-62 -220h184zM299 -180q-32 0 -46.5 12.5t-14.5 35.5v22q0 23 14.5 35.5t46.5 12.5t46.5 -12.5t14.5 -35.5v-22q0 -23 -14.5 -35.5t-46.5 -12.5z" />
    <glyph glyph-name="uni1EA1" unicode="&#x1ea1;" horiz-adv-x="497" 
d="M404 0q-38 0 -59 21t-21 66h-12q-11 -47 -45.5 -73t-84.5 -26q-74 0 -110.5 39.5t-36.5 111.5q0 78 50 119t147 41h86v50q0 50 -22 73.5t-70 23.5q-37 0 -63.5 -16t-48.5 -54l-61 56q26 44 70.5 72t109.5 28q94 0 141 -45.5t47 -133.5v-268h49v-85h-66zM216 68
q22 0 40.5 7t32 19t21.5 28.5t8 35.5v72h-81q-97 0 -97 -70v-24q0 -35 20.5 -51.5t55.5 -16.5zM231 -180q-32 0 -46.5 12.5t-14.5 35.5v22q0 23 14.5 35.5t46.5 12.5t46.5 -12.5t14.5 -35.5v-22q0 -23 -14.5 -35.5t-46.5 -12.5z" />
    <glyph glyph-name="uni1EA2" unicode="&#x1ea2;" horiz-adv-x="596" 
d="M468 0l-54 193h-235l-54 -193h-104l209 698h135l210 -698h-107zM324 500l-22 102h-13l-22 -102l-62 -220h184zM206 947h121q39 0 55.5 -15.5t16.5 -45.5q0 -24 -9 -46t-29 -51l-35 -49l-56 27l47 102h-111v78z" />
    <glyph glyph-name="uni1EA3" unicode="&#x1ea3;" horiz-adv-x="497" 
d="M404 0q-38 0 -59 21t-21 66h-12q-11 -47 -45.5 -73t-84.5 -26q-74 0 -110.5 39.5t-36.5 111.5q0 78 50 119t147 41h86v50q0 50 -22 73.5t-70 23.5q-37 0 -63.5 -16t-48.5 -54l-61 56q26 44 70.5 72t109.5 28q94 0 141 -45.5t47 -133.5v-268h49v-85h-66zM216 68
q22 0 40.5 7t32 19t21.5 28.5t8 35.5v72h-81q-97 0 -97 -70v-24q0 -35 20.5 -51.5t55.5 -16.5zM142 781h121q39 0 55.5 -15.5t16.5 -45.5q0 -24 -9 -46t-29 -51l-35 -49l-56 27l47 102h-111v78z" />
    <glyph glyph-name="uni1EA4" unicode="&#x1ea4;" horiz-adv-x="596" 
d="M468 0l-54 193h-235l-54 -193h-104l209 698h135l210 -698h-107zM324 500l-22 102h-13l-22 -102l-62 -220h184zM456 879l-59 31l80 180l86 -45zM349 926l116 -142l-51 -42l-115 113l-114 -113l-51 42l116 142h99z" />
    <glyph glyph-name="uni1EA5" unicode="&#x1ea5;" horiz-adv-x="497" 
d="M404 0q-38 0 -59 21t-21 66h-12q-11 -47 -45.5 -73t-84.5 -26q-74 0 -110.5 39.5t-36.5 111.5q0 78 50 119t147 41h86v50q0 50 -22 73.5t-70 23.5q-37 0 -63.5 -16t-48.5 -54l-61 56q26 44 70.5 72t109.5 28q94 0 141 -45.5t47 -133.5v-268h49v-85h-66zM216 68
q22 0 40.5 7t32 19t21.5 28.5t8 35.5v72h-81q-97 0 -97 -70v-24q0 -35 20.5 -51.5t55.5 -16.5zM392 713l-59 31l80 180l86 -45zM285 760l116 -142l-51 -42l-115 113l-114 -113l-51 42l116 142h99z" />
    <glyph glyph-name="uni1EA6" unicode="&#x1ea6;" horiz-adv-x="596" 
d="M468 0l-54 193h-235l-54 -193h-104l209 698h135l210 -698h-107zM324 500l-22 102h-13l-22 -102l-62 -220h184zM36 1045l85 45l82 -180l-59 -31zM349 926l116 -142l-51 -42l-115 113l-114 -113l-51 42l116 142h99z" />
    <glyph glyph-name="uni1EA7" unicode="&#x1ea7;" horiz-adv-x="497" 
d="M404 0q-38 0 -59 21t-21 66h-12q-11 -47 -45.5 -73t-84.5 -26q-74 0 -110.5 39.5t-36.5 111.5q0 78 50 119t147 41h86v50q0 50 -22 73.5t-70 23.5q-37 0 -63.5 -16t-48.5 -54l-61 56q26 44 70.5 72t109.5 28q94 0 141 -45.5t47 -133.5v-268h49v-85h-66zM216 68
q22 0 40.5 7t32 19t21.5 28.5t8 35.5v72h-81q-97 0 -97 -70v-24q0 -35 20.5 -51.5t55.5 -16.5zM-28 879l85 45l82 -180l-59 -31zM285 760l116 -142l-51 -42l-115 113l-114 -113l-51 42l116 142h99z" />
    <glyph glyph-name="uni1EA8" unicode="&#x1ea8;" horiz-adv-x="596" 
d="M468 0l-54 193h-235l-54 -193h-104l209 698h135l210 -698h-107zM324 500l-22 102h-13l-22 -102l-62 -220h184zM346 1077h107q39 0 55.5 -15.5t16.5 -45.5q0 -24 -9 -46.5t-29 -51.5l-32 -44l-47 25l46 105h-108v73zM348 926l117 -142l-51 -42l-115 113l-114 -113l-51 42
l117 142h97z" />
    <glyph glyph-name="uni1EA9" unicode="&#x1ea9;" horiz-adv-x="497" 
d="M404 0q-38 0 -59 21t-21 66h-12q-11 -47 -45.5 -73t-84.5 -26q-74 0 -110.5 39.5t-36.5 111.5q0 78 50 119t147 41h86v50q0 50 -22 73.5t-70 23.5q-37 0 -63.5 -16t-48.5 -54l-61 56q26 44 70.5 72t109.5 28q94 0 141 -45.5t47 -133.5v-268h49v-85h-66zM216 68
q22 0 40.5 7t32 19t21.5 28.5t8 35.5v72h-81q-97 0 -97 -70v-24q0 -35 20.5 -51.5t55.5 -16.5zM282 911h107q39 0 55.5 -15.5t16.5 -45.5q0 -24 -9 -46.5t-29 -51.5l-32 -44l-47 25l46 105h-108v73zM284 760l117 -142l-51 -42l-115 113l-114 -113l-51 42l117 142h97z" />
    <glyph glyph-name="uni1EAA" unicode="&#x1eaa;" horiz-adv-x="596" 
d="M468 0l-54 193h-235l-54 -193h-104l209 698h135l210 -698h-107zM324 500l-22 102h-13l-22 -102l-62 -220h184zM230 1074q32 0 73 -24q29 -17 42 -21.5t24 -4.5q13 0 23.5 5.5t27.5 21.5l37 -46q-33 -56 -91 -56q-33 0 -73 24q-29 17 -42 21.5t-24 4.5q-13 0 -23.5 -5.5
t-27.5 -21.5l-37 46q33 56 91 56zM348 921l116 -137l-49 -42l-116 108l-116 -108l-49 42l116 137h98z" />
    <glyph glyph-name="uni1EAB" unicode="&#x1eab;" horiz-adv-x="497" 
d="M404 0q-38 0 -59 21t-21 66h-12q-11 -47 -45.5 -73t-84.5 -26q-74 0 -110.5 39.5t-36.5 111.5q0 78 50 119t147 41h86v50q0 50 -22 73.5t-70 23.5q-37 0 -63.5 -16t-48.5 -54l-61 56q26 44 70.5 72t109.5 28q94 0 141 -45.5t47 -133.5v-268h49v-85h-66zM216 68
q22 0 40.5 7t32 19t21.5 28.5t8 35.5v72h-81q-97 0 -97 -70v-24q0 -35 20.5 -51.5t55.5 -16.5zM166 908q32 0 73 -24q29 -17 42 -21.5t24 -4.5q13 0 23.5 5.5t27.5 21.5l37 -46q-33 -56 -91 -56q-33 0 -73 24q-29 17 -42 21.5t-24 4.5q-13 0 -23.5 -5.5t-27.5 -21.5l-37 46
q33 56 91 56zM284 755l116 -137l-49 -42l-116 108l-116 -108l-49 42l116 137h98z" />
    <glyph glyph-name="uni1EAC" unicode="&#x1eac;" horiz-adv-x="596" 
d="M468 0l-54 193h-235l-54 -193h-104l209 698h135l210 -698h-107zM324 500l-22 102h-13l-22 -102l-62 -220h184zM349 944l113 -151l-53 -41l-110 118l-110 -118l-53 41l113 151h100zM299 -180q-32 0 -46.5 12.5t-14.5 35.5v22q0 23 14.5 35.5t46.5 12.5t46.5 -12.5
t14.5 -35.5v-22q0 -23 -14.5 -35.5t-46.5 -12.5z" />
    <glyph glyph-name="uni1EAD" unicode="&#x1ead;" horiz-adv-x="497" 
d="M404 0q-38 0 -59 21t-21 66h-12q-11 -47 -45.5 -73t-84.5 -26q-74 0 -110.5 39.5t-36.5 111.5q0 78 50 119t147 41h86v50q0 50 -22 73.5t-70 23.5q-37 0 -63.5 -16t-48.5 -54l-61 56q26 44 70.5 72t109.5 28q94 0 141 -45.5t47 -133.5v-268h49v-85h-66zM216 68
q22 0 40.5 7t32 19t21.5 28.5t8 35.5v72h-81q-97 0 -97 -70v-24q0 -35 20.5 -51.5t55.5 -16.5zM286 778l113 -151l-53 -41l-110 118l-110 -118l-53 41l113 151h100zM231 -180q-32 0 -46.5 12.5t-14.5 35.5v22q0 23 14.5 35.5t46.5 12.5t46.5 -12.5t14.5 -35.5v-22
q0 -23 -14.5 -35.5t-46.5 -12.5z" />
    <glyph glyph-name="uni1EAE" unicode="&#x1eae;" horiz-adv-x="596" 
d="M468 0l-54 193h-235l-54 -193h-104l209 698h135l210 -698h-107zM324 500l-22 102h-13l-22 -102l-62 -220h184zM299 746q-60 0 -97 32.5t-63 107.5l56 29l19 -37q29 -59 85 -59q54 0 85 59l19 37l56 -29q-26 -75 -63 -107.5t-97 -32.5zM309 880l-57 30l85 180l83 -42z" />
    <glyph glyph-name="uni1EAF" unicode="&#x1eaf;" horiz-adv-x="497" 
d="M404 0q-38 0 -59 21t-21 66h-12q-11 -47 -45.5 -73t-84.5 -26q-74 0 -110.5 39.5t-36.5 111.5q0 78 50 119t147 41h86v50q0 50 -22 73.5t-70 23.5q-37 0 -63.5 -16t-48.5 -54l-61 56q26 44 70.5 72t109.5 28q94 0 141 -45.5t47 -133.5v-268h49v-85h-66zM216 68
q22 0 40.5 7t32 19t21.5 28.5t8 35.5v72h-81q-97 0 -97 -70v-24q0 -35 20.5 -51.5t55.5 -16.5zM235 579q-60 0 -97 32.5t-63 107.5l56 29l19 -37q29 -59 85 -59q54 0 85 59l19 37l56 -29q-26 -75 -63 -107.5t-97 -32.5zM245 713l-57 30l85 180l83 -42z" />
    <glyph glyph-name="uni1EB0" unicode="&#x1eb0;" horiz-adv-x="596" 
d="M468 0l-54 193h-235l-54 -193h-104l209 698h135l210 -698h-107zM324 500l-22 102h-13l-22 -102l-62 -220h184zM299 746q-60 0 -97 32.5t-63 107.5l56 29l19 -37q29 -59 85 -59q54 0 85 59l19 37l56 -29q-26 -75 -63 -107.5t-97 -32.5zM178 1048l83 42l85 -180l-57 -30z
" />
    <glyph glyph-name="uni1EB1" unicode="&#x1eb1;" horiz-adv-x="497" 
d="M404 0q-38 0 -59 21t-21 66h-12q-11 -47 -45.5 -73t-84.5 -26q-74 0 -110.5 39.5t-36.5 111.5q0 78 50 119t147 41h86v50q0 50 -22 73.5t-70 23.5q-37 0 -63.5 -16t-48.5 -54l-61 56q26 44 70.5 72t109.5 28q94 0 141 -45.5t47 -133.5v-268h49v-85h-66zM216 68
q22 0 40.5 7t32 19t21.5 28.5t8 35.5v72h-81q-97 0 -97 -70v-24q0 -35 20.5 -51.5t55.5 -16.5zM235 579q-60 0 -97 32.5t-63 107.5l56 29l19 -37q29 -59 85 -59q54 0 85 59l19 37l56 -29q-26 -75 -63 -107.5t-97 -32.5zM114 881l83 42l85 -180l-57 -30z" />
    <glyph glyph-name="uni1EB2" unicode="&#x1eb2;" horiz-adv-x="596" 
d="M468 0l-54 193h-235l-54 -193h-104l209 698h135l210 -698h-107zM324 500l-22 102h-13l-22 -102l-62 -220h184zM201 1078h107q39 0 55.5 -15.5t16.5 -45.5q0 -24 -9 -46.5t-30 -51.5l-31 -44l-48 25l47 105h-108v73zM299 746q-60 0 -97 32.5t-63 107.5l56 29l19 -37
q29 -59 85 -59q54 0 85 59l19 37l56 -29q-26 -75 -63 -107.5t-97 -32.5z" />
    <glyph glyph-name="uni1EB3" unicode="&#x1eb3;" horiz-adv-x="497" 
d="M404 0q-38 0 -59 21t-21 66h-12q-11 -47 -45.5 -73t-84.5 -26q-74 0 -110.5 39.5t-36.5 111.5q0 78 50 119t147 41h86v50q0 50 -22 73.5t-70 23.5q-37 0 -63.5 -16t-48.5 -54l-61 56q26 44 70.5 72t109.5 28q94 0 141 -45.5t47 -133.5v-268h49v-85h-66zM216 68
q22 0 40.5 7t32 19t21.5 28.5t8 35.5v72h-81q-97 0 -97 -70v-24q0 -35 20.5 -51.5t55.5 -16.5zM235 579q-60 0 -97 32.5t-63 107.5l56 29l19 -37q29 -59 85 -59q54 0 85 59l19 37l56 -29q-26 -75 -63 -107.5t-97 -32.5zM137 911h107q39 0 55.5 -15.5t16.5 -45.5
q0 -24 -9 -46.5t-30 -51.5l-31 -44l-48 25l47 105h-108v73z" />
    <glyph glyph-name="uni1EB4" unicode="&#x1eb4;" horiz-adv-x="596" 
d="M468 0l-54 193h-235l-54 -193h-104l209 698h135l210 -698h-107zM324 500l-22 102h-13l-22 -102l-62 -220h184zM366 945q-17 0 -34 5t-40 18q-24 14 -39 20t-26 6q-13 0 -23.5 -4.5t-28.5 -21.5l-36 46q35 56 91 56q17 0 34 -5t40 -18q24 -14 39 -20t26 -6q14 0 24.5 5.5
t27.5 20.5l36 -46q-35 -56 -91 -56zM299 746q-60 0 -97 32.5t-63 107.5l56 29l19 -37q29 -59 85 -59q54 0 85 59l19 37l56 -29q-26 -75 -63 -107.5t-97 -32.5z" />
    <glyph glyph-name="uni1EB5" unicode="&#x1eb5;" horiz-adv-x="497" 
d="M404 0q-38 0 -59 21t-21 66h-12q-11 -47 -45.5 -73t-84.5 -26q-74 0 -110.5 39.5t-36.5 111.5q0 78 50 119t147 41h86v50q0 50 -22 73.5t-70 23.5q-37 0 -63.5 -16t-48.5 -54l-61 56q26 44 70.5 72t109.5 28q94 0 141 -45.5t47 -133.5v-268h49v-85h-66zM216 68
q22 0 40.5 7t32 19t21.5 28.5t8 35.5v72h-81q-97 0 -97 -70v-24q0 -35 20.5 -51.5t55.5 -16.5zM235 579q-60 0 -97 32.5t-63 107.5l56 29l19 -37q29 -59 85 -59q54 0 85 59l19 37l56 -29q-26 -75 -63 -107.5t-97 -32.5zM302 778q-17 0 -34 5t-40 18q-24 14 -39 20t-26 6
q-13 0 -23.5 -4.5t-28.5 -21.5l-36 46q35 56 91 56q17 0 34 -5t40 -18q24 -14 39 -20t26 -6q14 0 24.5 5.5t27.5 20.5l36 -46q-35 -56 -91 -56z" />
    <glyph glyph-name="uni1EB6" unicode="&#x1eb6;" horiz-adv-x="596" 
d="M468 0l-54 193h-235l-54 -193h-104l209 698h135l210 -698h-107zM324 500l-22 102h-13l-22 -102l-62 -220h184zM299 755q-29 0 -52 7.5t-42 24.5t-34 44.5t-29 68.5l57 29l19 -37q18 -35 36 -48t45 -13t45.5 13t35.5 48l19 37l57 -29q-14 -41 -29.5 -68.5t-34.5 -44.5
t-42 -24.5t-51 -7.5zM299 -180q-32 0 -46.5 12.5t-14.5 35.5v22q0 23 14.5 35.5t46.5 12.5t46.5 -12.5t14.5 -35.5v-22q0 -23 -14.5 -35.5t-46.5 -12.5z" />
    <glyph glyph-name="uni1EB7" unicode="&#x1eb7;" horiz-adv-x="497" 
d="M404 0q-38 0 -59 21t-21 66h-12q-11 -47 -45.5 -73t-84.5 -26q-74 0 -110.5 39.5t-36.5 111.5q0 78 50 119t147 41h86v50q0 50 -22 73.5t-70 23.5q-37 0 -63.5 -16t-48.5 -54l-61 56q26 44 70.5 72t109.5 28q94 0 141 -45.5t47 -133.5v-268h49v-85h-66zM216 68
q22 0 40.5 7t32 19t21.5 28.5t8 35.5v72h-81q-97 0 -97 -70v-24q0 -35 20.5 -51.5t55.5 -16.5zM236 589q-29 0 -52 7.5t-42 24.5t-34 44.5t-29 68.5l57 29l19 -37q18 -35 36 -48t45 -13t45.5 13t35.5 48l19 37l57 -29q-14 -41 -29.5 -68.5t-34.5 -44.5t-42 -24.5t-51 -7.5z
M231 -180q-32 0 -46.5 12.5t-14.5 35.5v22q0 23 14.5 35.5t46.5 12.5t46.5 -12.5t14.5 -35.5v-22q0 -23 -14.5 -35.5t-46.5 -12.5z" />
    <glyph glyph-name="uni1EB8" unicode="&#x1eb8;" horiz-adv-x="536" 
d="M77 0v698h405v-93h-299v-204h270v-92h-270v-216h299v-93h-405zM278 -180q-32 0 -46.5 12.5t-14.5 35.5v22q0 23 14.5 35.5t46.5 12.5t46.5 -12.5t14.5 -35.5v-22q0 -23 -14.5 -35.5t-46.5 -12.5z" />
    <glyph glyph-name="uni1EB9" unicode="&#x1eb9;" horiz-adv-x="501" 
d="M259 -12q-49 0 -90 16t-70 49.5t-45.5 84.5t-16.5 122t15 122.5t43.5 84.5t68 49t89.5 16q99 0 154.5 -65t55.5 -207v-26h-318v-33q0 -62 31.5 -95t86.5 -33q47 0 77.5 21t51.5 59l60 -57q-28 -49 -75.5 -78.5t-117.5 -29.5zM253 450q-52 0 -80 -31.5t-28 -94.5v-21h209
v21q0 126 -101 126zM255 -180q-32 0 -46.5 12.5t-14.5 35.5v22q0 23 14.5 35.5t46.5 12.5t46.5 -12.5t14.5 -35.5v-22q0 -23 -14.5 -35.5t-46.5 -12.5z" />
    <glyph glyph-name="uni1EBA" unicode="&#x1eba;" horiz-adv-x="536" 
d="M77 0v698h405v-93h-299v-204h270v-92h-270v-216h299v-93h-405zM185 947h121q39 0 55.5 -15.5t16.5 -45.5q0 -24 -9 -46t-29 -51l-35 -49l-56 27l47 102h-111v78z" />
    <glyph glyph-name="uni1EBB" unicode="&#x1ebb;" horiz-adv-x="501" 
d="M259 -12q-49 0 -90 16t-70 49.5t-45.5 84.5t-16.5 122t15 122.5t43.5 84.5t68 49t89.5 16q99 0 154.5 -65t55.5 -207v-26h-318v-33q0 -62 31.5 -95t86.5 -33q47 0 77.5 21t51.5 59l60 -57q-28 -49 -75.5 -78.5t-117.5 -29.5zM253 450q-52 0 -80 -31.5t-28 -94.5v-21h209
v21q0 126 -101 126zM160 781h121q39 0 55.5 -15.5t16.5 -45.5q0 -24 -9 -46t-29 -51l-35 -49l-56 27l47 102h-111v78z" />
    <glyph glyph-name="uni1EBC" unicode="&#x1ebc;" horiz-adv-x="536" 
d="M77 0v698h405v-93h-299v-204h270v-92h-270v-216h299v-93h-405zM347 775q-17 0 -32.5 4.5t-41.5 19.5q-25 14 -39.5 19.5t-25.5 5.5q-17 0 -28 -7t-25 -20l-38 49q17 26 40 40.5t52 14.5q17 0 32.5 -4.5t41.5 -19.5q25 -14 39.5 -19.5t25.5 -5.5q17 0 28 7t25 20l38 -49
q-17 -26 -40 -40.5t-52 -14.5z" />
    <glyph glyph-name="uni1EBD" unicode="&#x1ebd;" horiz-adv-x="501" 
d="M259 -12q-49 0 -90 16t-70 49.5t-45.5 84.5t-16.5 122t15 122.5t43.5 84.5t68 49t89.5 16q99 0 154.5 -65t55.5 -207v-26h-318v-33q0 -62 31.5 -95t86.5 -33q47 0 77.5 21t51.5 59l60 -57q-28 -49 -75.5 -78.5t-117.5 -29.5zM253 450q-52 0 -80 -31.5t-28 -94.5v-21h209
v21q0 126 -101 126zM323 609q-17 0 -32.5 4.5t-41.5 19.5q-25 14 -39.5 19.5t-25.5 5.5q-17 0 -28 -7t-25 -20l-38 49q17 26 40 40.5t52 14.5q17 0 32.5 -4.5t41.5 -19.5q25 -14 39.5 -19.5t25.5 -5.5q17 0 28 7t25 20l38 -49q-17 -26 -40 -40.5t-52 -14.5z" />
    <glyph glyph-name="uni1EBE" unicode="&#x1ebe;" horiz-adv-x="536" 
d="M77 0v698h405v-93h-299v-204h270v-92h-270v-216h299v-93h-405zM435 879l-59 31l80 180l86 -45zM328 926l116 -142l-51 -42l-115 113l-114 -113l-51 42l116 142h99z" />
    <glyph glyph-name="uni1EBF" unicode="&#x1ebf;" horiz-adv-x="501" 
d="M259 -12q-49 0 -90 16t-70 49.5t-45.5 84.5t-16.5 122t15 122.5t43.5 84.5t68 49t89.5 16q99 0 154.5 -65t55.5 -207v-26h-318v-33q0 -62 31.5 -95t86.5 -33q47 0 77.5 21t51.5 59l60 -57q-28 -49 -75.5 -78.5t-117.5 -29.5zM253 450q-52 0 -80 -31.5t-28 -94.5v-21h209
v21q0 126 -101 126zM410 713l-59 31l80 180l86 -45zM303 760l116 -142l-51 -42l-115 113l-114 -113l-51 42l116 142h99z" />
    <glyph glyph-name="uni1EC0" unicode="&#x1ec0;" horiz-adv-x="536" 
d="M77 0v698h405v-93h-299v-204h270v-92h-270v-216h299v-93h-405zM15 1045l85 45l82 -180l-59 -31zM328 926l116 -142l-51 -42l-115 113l-114 -113l-51 42l116 142h99z" />
    <glyph glyph-name="uni1EC1" unicode="&#x1ec1;" horiz-adv-x="501" 
d="M259 -12q-49 0 -90 16t-70 49.5t-45.5 84.5t-16.5 122t15 122.5t43.5 84.5t68 49t89.5 16q99 0 154.5 -65t55.5 -207v-26h-318v-33q0 -62 31.5 -95t86.5 -33q47 0 77.5 21t51.5 59l60 -57q-28 -49 -75.5 -78.5t-117.5 -29.5zM253 450q-52 0 -80 -31.5t-28 -94.5v-21h209
v21q0 126 -101 126zM-10 879l85 45l82 -180l-59 -31zM303 760l116 -142l-51 -42l-115 113l-114 -113l-51 42l116 142h99z" />
    <glyph glyph-name="uni1EC2" unicode="&#x1ec2;" horiz-adv-x="536" 
d="M77 0v698h405v-93h-299v-204h270v-92h-270v-216h299v-93h-405zM325 1077h107q39 0 55.5 -15.5t16.5 -45.5q0 -24 -9 -46.5t-29 -51.5l-32 -44l-47 25l46 105h-108v73zM327 926l117 -142l-51 -42l-115 113l-114 -113l-51 42l117 142h97z" />
    <glyph glyph-name="uni1EC3" unicode="&#x1ec3;" horiz-adv-x="501" 
d="M259 -12q-49 0 -90 16t-70 49.5t-45.5 84.5t-16.5 122t15 122.5t43.5 84.5t68 49t89.5 16q99 0 154.5 -65t55.5 -207v-26h-318v-33q0 -62 31.5 -95t86.5 -33q47 0 77.5 21t51.5 59l60 -57q-28 -49 -75.5 -78.5t-117.5 -29.5zM253 450q-52 0 -80 -31.5t-28 -94.5v-21h209
v21q0 126 -101 126zM300 911h107q39 0 55.5 -15.5t16.5 -45.5q0 -24 -9 -46.5t-29 -51.5l-32 -44l-47 25l46 105h-108v73zM302 760l117 -142l-51 -42l-115 113l-114 -113l-51 42l117 142h97z" />
    <glyph glyph-name="uni1EC4" unicode="&#x1ec4;" horiz-adv-x="536" 
d="M77 0v698h405v-93h-299v-204h270v-92h-270v-216h299v-93h-405zM209 1074q32 0 73 -24q29 -17 42 -21.5t24 -4.5q13 0 23.5 5.5t27.5 21.5l37 -46q-33 -56 -91 -56q-33 0 -73 24q-29 17 -42 21.5t-24 4.5q-13 0 -23.5 -5.5t-27.5 -21.5l-37 46q33 56 91 56zM327 921
l116 -137l-49 -42l-116 108l-116 -108l-49 42l116 137h98z" />
    <glyph glyph-name="uni1EC5" unicode="&#x1ec5;" horiz-adv-x="501" 
d="M259 -12q-49 0 -90 16t-70 49.5t-45.5 84.5t-16.5 122t15 122.5t43.5 84.5t68 49t89.5 16q99 0 154.5 -65t55.5 -207v-26h-318v-33q0 -62 31.5 -95t86.5 -33q47 0 77.5 21t51.5 59l60 -57q-28 -49 -75.5 -78.5t-117.5 -29.5zM253 450q-52 0 -80 -31.5t-28 -94.5v-21h209
v21q0 126 -101 126zM184 908q32 0 73 -24q29 -17 42 -21.5t24 -4.5q13 0 23.5 5.5t27.5 21.5l37 -46q-33 -56 -91 -56q-33 0 -73 24q-29 17 -42 21.5t-24 4.5q-13 0 -23.5 -5.5t-27.5 -21.5l-37 46q33 56 91 56zM302 755l116 -137l-49 -42l-116 108l-116 -108l-49 42
l116 137h98z" />
    <glyph glyph-name="uni1EC6" unicode="&#x1ec6;" horiz-adv-x="536" 
d="M77 0v698h405v-93h-299v-204h270v-92h-270v-216h299v-93h-405zM328 944l113 -151l-53 -41l-110 118l-110 -118l-53 41l113 151h100zM278 -180q-32 0 -46.5 12.5t-14.5 35.5v22q0 23 14.5 35.5t46.5 12.5t46.5 -12.5t14.5 -35.5v-22q0 -23 -14.5 -35.5t-46.5 -12.5z" />
    <glyph glyph-name="uni1EC7" unicode="&#x1ec7;" horiz-adv-x="501" 
d="M259 -12q-49 0 -90 16t-70 49.5t-45.5 84.5t-16.5 122t15 122.5t43.5 84.5t68 49t89.5 16q99 0 154.5 -65t55.5 -207v-26h-318v-33q0 -62 31.5 -95t86.5 -33q47 0 77.5 21t51.5 59l60 -57q-28 -49 -75.5 -78.5t-117.5 -29.5zM253 450q-52 0 -80 -31.5t-28 -94.5v-21h209
v21q0 126 -101 126zM304 778l113 -151l-53 -41l-110 118l-110 -118l-53 41l113 151h100zM255 -180q-32 0 -46.5 12.5t-14.5 35.5v22q0 23 14.5 35.5t46.5 12.5t46.5 -12.5t14.5 -35.5v-22q0 -23 -14.5 -35.5t-46.5 -12.5z" />
    <glyph glyph-name="uni1EC8" unicode="&#x1ec8;" horiz-adv-x="377" 
d="M50 0v85h85v528h-85v85h276v-85h-85v-528h85v-85h-276zM96 947h121q39 0 55.5 -15.5t16.5 -45.5q0 -24 -9 -46t-29 -51l-35 -49l-56 27l47 102h-111v78z" />
    <glyph glyph-name="uni1EC9" unicode="&#x1ec9;" horiz-adv-x="243" 
d="M70 0v520h103v-520h-103zM28 781h121q39 0 55.5 -15.5t16.5 -45.5q0 -24 -9 -46t-29 -51l-35 -49l-56 27l47 102h-111v78z" />
    <glyph glyph-name="uni1ECA" unicode="&#x1eca;" horiz-adv-x="377" 
d="M50 0v85h85v528h-85v85h276v-85h-85v-528h85v-85h-276zM189 -180q-32 0 -46.5 12.5t-14.5 35.5v22q0 23 14.5 35.5t46.5 12.5t46.5 -12.5t14.5 -35.5v-22q0 -23 -14.5 -35.5t-46.5 -12.5z" />
    <glyph glyph-name="uni1ECB" unicode="&#x1ecb;" horiz-adv-x="244" 
d="M122 619q-62 0 -62 53v18q0 53 62 53t62 -53v-18q0 -53 -62 -53zM71 520h103v-520h-103v520zM122 -180q-32 0 -46.5 12.5t-14.5 35.5v22q0 23 14.5 35.5t46.5 12.5t46.5 -12.5t14.5 -35.5v-22q0 -23 -14.5 -35.5t-46.5 -12.5z" />
    <glyph glyph-name="uni1ECC" unicode="&#x1ecc;" horiz-adv-x="640" 
d="M320 -12q-63 0 -113 20.5t-85.5 64.5t-54 112.5t-18.5 163.5t18.5 163.5t54 112.5t85.5 64.5t113 20.5t113 -20.5t85.5 -64.5t54 -112.5t18.5 -163.5t-18.5 -163.5t-54 -112.5t-85.5 -64.5t-113 -20.5zM320 82q75 0 116 48.5t41 134.5v168q0 86 -41 134.5t-116 48.5
t-116 -48.5t-41 -134.5v-168q0 -86 41 -134.5t116 -48.5zM320 -180q-32 0 -46.5 12.5t-14.5 35.5v22q0 23 14.5 35.5t46.5 12.5t46.5 -12.5t14.5 -35.5v-22q0 -23 -14.5 -35.5t-46.5 -12.5z" />
    <glyph glyph-name="uni1ECD" unicode="&#x1ecd;" horiz-adv-x="506" 
d="M253 -12q-50 0 -89.5 16t-68 49t-43.5 84.5t-15 122.5t15 122.5t43.5 84.5t68 49t89.5 16q49 0 89 -16t68.5 -49t43.5 -84.5t15 -122.5t-15 -122.5t-43.5 -84.5t-68.5 -49t-89 -16zM253 74q52 0 79.5 31t27.5 94v122q0 63 -27.5 94t-79.5 31t-79.5 -31t-27.5 -94v-122
q0 -63 27.5 -94t79.5 -31zM253 -180q-32 0 -46.5 12.5t-14.5 35.5v22q0 23 14.5 35.5t46.5 12.5t46.5 -12.5t14.5 -35.5v-22q0 -23 -14.5 -35.5t-46.5 -12.5z" />
    <glyph glyph-name="uni1ECE" unicode="&#x1ece;" horiz-adv-x="640" 
d="M320 -12q-63 0 -113 20.5t-85.5 64.5t-54 112.5t-18.5 163.5t18.5 163.5t54 112.5t85.5 64.5t113 20.5t113 -20.5t85.5 -64.5t54 -112.5t18.5 -163.5t-18.5 -163.5t-54 -112.5t-85.5 -64.5t-113 -20.5zM320 82q75 0 116 48.5t41 134.5v168q0 86 -41 134.5t-116 48.5
t-116 -48.5t-41 -134.5v-168q0 -86 41 -134.5t116 -48.5zM227 947h121q39 0 55.5 -15.5t16.5 -45.5q0 -24 -9 -46t-29 -51l-35 -49l-56 27l47 102h-111v78z" />
    <glyph glyph-name="uni1ECF" unicode="&#x1ecf;" horiz-adv-x="506" 
d="M253 -12q-50 0 -89.5 16t-68 49t-43.5 84.5t-15 122.5t15 122.5t43.5 84.5t68 49t89.5 16q49 0 89 -16t68.5 -49t43.5 -84.5t15 -122.5t-15 -122.5t-43.5 -84.5t-68.5 -49t-89 -16zM253 74q52 0 79.5 31t27.5 94v122q0 63 -27.5 94t-79.5 31t-79.5 -31t-27.5 -94v-122
q0 -63 27.5 -94t79.5 -31zM160 781h121q39 0 55.5 -15.5t16.5 -45.5q0 -24 -9 -46t-29 -51l-35 -49l-56 27l47 102h-111v78z" />
    <glyph glyph-name="uni1ED0" unicode="&#x1ed0;" horiz-adv-x="640" 
d="M320 -12q-63 0 -113 20.5t-85.5 64.5t-54 112.5t-18.5 163.5t18.5 163.5t54 112.5t85.5 64.5t113 20.5t113 -20.5t85.5 -64.5t54 -112.5t18.5 -163.5t-18.5 -163.5t-54 -112.5t-85.5 -64.5t-113 -20.5zM320 82q75 0 116 48.5t41 134.5v168q0 86 -41 134.5t-116 48.5
t-116 -48.5t-41 -134.5v-168q0 -86 41 -134.5t116 -48.5zM477 879l-59 31l80 180l86 -45zM370 926l116 -142l-51 -42l-115 113l-114 -113l-51 42l116 142h99z" />
    <glyph glyph-name="uni1ED1" unicode="&#x1ed1;" horiz-adv-x="506" 
d="M253 -12q-50 0 -89.5 16t-68 49t-43.5 84.5t-15 122.5t15 122.5t43.5 84.5t68 49t89.5 16q49 0 89 -16t68.5 -49t43.5 -84.5t15 -122.5t-15 -122.5t-43.5 -84.5t-68.5 -49t-89 -16zM253 74q52 0 79.5 31t27.5 94v122q0 63 -27.5 94t-79.5 31t-79.5 -31t-27.5 -94v-122
q0 -63 27.5 -94t79.5 -31zM410 713l-59 31l80 180l86 -45zM303 760l116 -142l-51 -42l-115 113l-114 -113l-51 42l116 142h99z" />
    <glyph glyph-name="uni1ED2" unicode="&#x1ed2;" horiz-adv-x="640" 
d="M320 -12q-63 0 -113 20.5t-85.5 64.5t-54 112.5t-18.5 163.5t18.5 163.5t54 112.5t85.5 64.5t113 20.5t113 -20.5t85.5 -64.5t54 -112.5t18.5 -163.5t-18.5 -163.5t-54 -112.5t-85.5 -64.5t-113 -20.5zM320 82q75 0 116 48.5t41 134.5v168q0 86 -41 134.5t-116 48.5
t-116 -48.5t-41 -134.5v-168q0 -86 41 -134.5t116 -48.5zM57 1045l85 45l82 -180l-59 -31zM370 926l116 -142l-51 -42l-115 113l-114 -113l-51 42l116 142h99z" />
    <glyph glyph-name="uni1ED3" unicode="&#x1ed3;" horiz-adv-x="506" 
d="M253 -12q-50 0 -89.5 16t-68 49t-43.5 84.5t-15 122.5t15 122.5t43.5 84.5t68 49t89.5 16q49 0 89 -16t68.5 -49t43.5 -84.5t15 -122.5t-15 -122.5t-43.5 -84.5t-68.5 -49t-89 -16zM253 74q52 0 79.5 31t27.5 94v122q0 63 -27.5 94t-79.5 31t-79.5 -31t-27.5 -94v-122
q0 -63 27.5 -94t79.5 -31zM-10 879l85 45l82 -180l-59 -31zM303 760l116 -142l-51 -42l-115 113l-114 -113l-51 42l116 142h99z" />
    <glyph glyph-name="uni1ED4" unicode="&#x1ed4;" horiz-adv-x="640" 
d="M320 -12q-63 0 -113 20.5t-85.5 64.5t-54 112.5t-18.5 163.5t18.5 163.5t54 112.5t85.5 64.5t113 20.5t113 -20.5t85.5 -64.5t54 -112.5t18.5 -163.5t-18.5 -163.5t-54 -112.5t-85.5 -64.5t-113 -20.5zM320 82q75 0 116 48.5t41 134.5v168q0 86 -41 134.5t-116 48.5
t-116 -48.5t-41 -134.5v-168q0 -86 41 -134.5t116 -48.5zM367 1077h107q39 0 55.5 -15.5t16.5 -45.5q0 -24 -9 -46.5t-29 -51.5l-32 -44l-47 25l46 105h-108v73zM369 926l117 -142l-51 -42l-115 113l-114 -113l-51 42l117 142h97z" />
    <glyph glyph-name="uni1ED5" unicode="&#x1ed5;" horiz-adv-x="506" 
d="M253 -12q-50 0 -89.5 16t-68 49t-43.5 84.5t-15 122.5t15 122.5t43.5 84.5t68 49t89.5 16q49 0 89 -16t68.5 -49t43.5 -84.5t15 -122.5t-15 -122.5t-43.5 -84.5t-68.5 -49t-89 -16zM253 74q52 0 79.5 31t27.5 94v122q0 63 -27.5 94t-79.5 31t-79.5 -31t-27.5 -94v-122
q0 -63 27.5 -94t79.5 -31zM300 911h107q39 0 55.5 -15.5t16.5 -45.5q0 -24 -9 -46.5t-29 -51.5l-32 -44l-47 25l46 105h-108v73zM302 760l117 -142l-51 -42l-115 113l-114 -113l-51 42l117 142h97z" />
    <glyph glyph-name="uni1ED6" unicode="&#x1ed6;" horiz-adv-x="640" 
d="M320 -12q-63 0 -113 20.5t-85.5 64.5t-54 112.5t-18.5 163.5t18.5 163.5t54 112.5t85.5 64.5t113 20.5t113 -20.5t85.5 -64.5t54 -112.5t18.5 -163.5t-18.5 -163.5t-54 -112.5t-85.5 -64.5t-113 -20.5zM320 82q75 0 116 48.5t41 134.5v168q0 86 -41 134.5t-116 48.5
t-116 -48.5t-41 -134.5v-168q0 -86 41 -134.5t116 -48.5zM251 1074q32 0 73 -24q29 -17 42 -21.5t24 -4.5q13 0 23.5 5.5t27.5 21.5l37 -46q-33 -56 -91 -56q-33 0 -73 24q-29 17 -42 21.5t-24 4.5q-13 0 -23.5 -5.5t-27.5 -21.5l-37 46q33 56 91 56zM369 921l116 -137
l-49 -42l-116 108l-116 -108l-49 42l116 137h98z" />
    <glyph glyph-name="uni1ED7" unicode="&#x1ed7;" horiz-adv-x="506" 
d="M253 -12q-50 0 -89.5 16t-68 49t-43.5 84.5t-15 122.5t15 122.5t43.5 84.5t68 49t89.5 16q49 0 89 -16t68.5 -49t43.5 -84.5t15 -122.5t-15 -122.5t-43.5 -84.5t-68.5 -49t-89 -16zM253 74q52 0 79.5 31t27.5 94v122q0 63 -27.5 94t-79.5 31t-79.5 -31t-27.5 -94v-122
q0 -63 27.5 -94t79.5 -31zM184 908q32 0 73 -24q29 -17 42 -21.5t24 -4.5q13 0 23.5 5.5t27.5 21.5l37 -46q-33 -56 -91 -56q-33 0 -73 24q-29 17 -42 21.5t-24 4.5q-13 0 -23.5 -5.5t-27.5 -21.5l-37 46q33 56 91 56zM302 755l116 -137l-49 -42l-116 108l-116 -108l-49 42
l116 137h98z" />
    <glyph glyph-name="uni1ED8" unicode="&#x1ed8;" horiz-adv-x="640" 
d="M320 -12q-63 0 -113 20.5t-85.5 64.5t-54 112.5t-18.5 163.5t18.5 163.5t54 112.5t85.5 64.5t113 20.5t113 -20.5t85.5 -64.5t54 -112.5t18.5 -163.5t-18.5 -163.5t-54 -112.5t-85.5 -64.5t-113 -20.5zM320 82q75 0 116 48.5t41 134.5v168q0 86 -41 134.5t-116 48.5
t-116 -48.5t-41 -134.5v-168q0 -86 41 -134.5t116 -48.5zM370 944l113 -151l-53 -41l-110 118l-110 -118l-53 41l113 151h100zM320 -180q-32 0 -46.5 12.5t-14.5 35.5v22q0 23 14.5 35.5t46.5 12.5t46.5 -12.5t14.5 -35.5v-22q0 -23 -14.5 -35.5t-46.5 -12.5z" />
    <glyph glyph-name="uni1ED9" unicode="&#x1ed9;" horiz-adv-x="506" 
d="M253 -12q-50 0 -89.5 16t-68 49t-43.5 84.5t-15 122.5t15 122.5t43.5 84.5t68 49t89.5 16q49 0 89 -16t68.5 -49t43.5 -84.5t15 -122.5t-15 -122.5t-43.5 -84.5t-68.5 -49t-89 -16zM253 74q52 0 79.5 31t27.5 94v122q0 63 -27.5 94t-79.5 31t-79.5 -31t-27.5 -94v-122
q0 -63 27.5 -94t79.5 -31zM304 778l113 -151l-53 -41l-110 118l-110 -118l-53 41l113 151h100zM253 -180q-32 0 -46.5 12.5t-14.5 35.5v22q0 23 14.5 35.5t46.5 12.5t46.5 -12.5t14.5 -35.5v-22q0 -23 -14.5 -35.5t-46.5 -12.5z" />
    <glyph glyph-name="uni1EDA" unicode="&#x1eda;" horiz-adv-x="640" 
d="M606 806v-103q0 -43 -15 -58.5t-59 -15.5h-96v-10q83 -13 119 -77.5t36 -192.5q0 -95 -18.5 -163.5t-54 -112.5t-85.5 -64.5t-113 -20.5t-113 20.5t-85.5 64.5t-54 112.5t-18.5 163.5t18.5 163.5t54 112.5t85.5 64.5t113 20.5q48 0 89 -12h111v108h86zM320 82
q75 0 116 48.5t41 134.5v168q0 86 -41 134.5t-116 48.5t-116 -48.5t-41 -134.5v-168q0 -86 41 -134.5t116 -48.5zM330 749l-63 31l84 182l90 -46z" />
    <glyph glyph-name="uni1EDB" unicode="&#x1edb;" horiz-adv-x="506" 
d="M489 628v-103q0 -35 -15.5 -51t-58.5 -16h-66v-11q59 -7 89.5 -54.5t30.5 -132.5q0 -71 -15 -122.5t-43.5 -84.5t-68.5 -49t-89 -16q-50 0 -89.5 16t-68 49t-43.5 84.5t-15 122.5t15 122.5t43.5 84.5t68 49t89.5 16q43 0 79 -12h71v108h86zM253 74q52 0 79.5 31t27.5 94
v122q0 63 -27.5 94t-79.5 31t-79.5 -31t-27.5 -94v-122q0 -63 27.5 -94t79.5 -31zM264 582l-63 31l84 182l90 -46z" />
    <glyph glyph-name="uni1EDC" unicode="&#x1edc;" horiz-adv-x="640" 
d="M606 806v-103q0 -43 -15 -58.5t-59 -15.5h-96v-10q83 -13 119 -77.5t36 -192.5q0 -95 -18.5 -163.5t-54 -112.5t-85.5 -64.5t-113 -20.5t-113 20.5t-85.5 64.5t-54 112.5t-18.5 163.5t18.5 163.5t54 112.5t85.5 64.5t113 20.5q48 0 89 -12h111v108h86zM320 82
q75 0 116 48.5t41 134.5v168q0 86 -41 134.5t-116 48.5t-116 -48.5t-41 -134.5v-168q0 -86 41 -134.5t116 -48.5zM199 916l90 46l84 -182l-63 -31z" />
    <glyph glyph-name="uni1EDD" unicode="&#x1edd;" horiz-adv-x="506" 
d="M489 628v-103q0 -35 -15.5 -51t-58.5 -16h-66v-11q59 -7 89.5 -54.5t30.5 -132.5q0 -71 -15 -122.5t-43.5 -84.5t-68.5 -49t-89 -16q-50 0 -89.5 16t-68 49t-43.5 84.5t-15 122.5t15 122.5t43.5 84.5t68 49t89.5 16q43 0 79 -12h71v108h86zM253 74q52 0 79.5 31t27.5 94
v122q0 63 -27.5 94t-79.5 31t-79.5 -31t-27.5 -94v-122q0 -63 27.5 -94t79.5 -31zM133 749l90 46l84 -182l-63 -31z" />
    <glyph glyph-name="uni1EDE" unicode="&#x1ede;" horiz-adv-x="640" 
d="M606 806v-103q0 -43 -15 -58.5t-59 -15.5h-96v-10q83 -13 119 -77.5t36 -192.5q0 -95 -18.5 -163.5t-54 -112.5t-85.5 -64.5t-113 -20.5t-113 20.5t-85.5 64.5t-54 112.5t-18.5 163.5t18.5 163.5t54 112.5t85.5 64.5t113 20.5q48 0 89 -12h111v108h86zM320 82
q75 0 116 48.5t41 134.5v168q0 86 -41 134.5t-116 48.5t-116 -48.5t-41 -134.5v-168q0 -86 41 -134.5t116 -48.5zM227 947h121q39 0 55.5 -15.5t16.5 -45.5q0 -24 -9 -46t-29 -51l-35 -49l-56 27l47 102h-111v78z" />
    <glyph glyph-name="uni1EDF" unicode="&#x1edf;" horiz-adv-x="506" 
d="M489 628v-103q0 -35 -15.5 -51t-58.5 -16h-66v-11q59 -7 89.5 -54.5t30.5 -132.5q0 -71 -15 -122.5t-43.5 -84.5t-68.5 -49t-89 -16q-50 0 -89.5 16t-68 49t-43.5 84.5t-15 122.5t15 122.5t43.5 84.5t68 49t89.5 16q43 0 79 -12h71v108h86zM253 74q52 0 79.5 31t27.5 94
v122q0 63 -27.5 94t-79.5 31t-79.5 -31t-27.5 -94v-122q0 -63 27.5 -94t79.5 -31zM160 781h121q39 0 55.5 -15.5t16.5 -45.5q0 -24 -9 -46t-29 -51l-35 -49l-56 27l47 102h-111v78z" />
    <glyph glyph-name="uni1EE0" unicode="&#x1ee0;" horiz-adv-x="640" 
d="M606 806v-103q0 -43 -15 -58.5t-59 -15.5h-96v-10q83 -13 119 -77.5t36 -192.5q0 -95 -18.5 -163.5t-54 -112.5t-85.5 -64.5t-113 -20.5t-113 20.5t-85.5 64.5t-54 112.5t-18.5 163.5t18.5 163.5t54 112.5t85.5 64.5t113 20.5q48 0 89 -12h111v108h86zM320 82
q75 0 116 48.5t41 134.5v168q0 86 -41 134.5t-116 48.5t-116 -48.5t-41 -134.5v-168q0 -86 41 -134.5t116 -48.5zM378 779q-20 0 -34 6t-29 16q-31 20 -53 20q-13 0 -23.5 -6t-22.5 -18l-38 49q32 53 83 53q20 0 34 -6t29 -16q31 -20 53 -20q13 0 23.5 6t22.5 18l38 -49
q-32 -53 -83 -53z" />
    <glyph glyph-name="uni1EE1" unicode="&#x1ee1;" horiz-adv-x="506" 
d="M489 628v-103q0 -35 -15.5 -51t-58.5 -16h-66v-11q59 -7 89.5 -54.5t30.5 -132.5q0 -71 -15 -122.5t-43.5 -84.5t-68.5 -49t-89 -16q-50 0 -89.5 16t-68 49t-43.5 84.5t-15 122.5t15 122.5t43.5 84.5t68 49t89.5 16q43 0 79 -12h71v108h86zM253 74q52 0 79.5 31t27.5 94
v122q0 63 -27.5 94t-79.5 31t-79.5 -31t-27.5 -94v-122q0 -63 27.5 -94t79.5 -31zM306 612q-20 0 -34 6t-29 16q-31 20 -53 20q-13 0 -23.5 -6t-22.5 -18l-38 49q32 53 83 53q20 0 34 -6t29 -16q31 -20 53 -20q13 0 23.5 6t22.5 18l38 -49q-32 -53 -83 -53z" />
    <glyph glyph-name="uni1EE2" unicode="&#x1ee2;" horiz-adv-x="640" 
d="M606 806v-103q0 -43 -15 -58.5t-59 -15.5h-96v-10q83 -13 119 -77.5t36 -192.5q0 -95 -18.5 -163.5t-54 -112.5t-85.5 -64.5t-113 -20.5t-113 20.5t-85.5 64.5t-54 112.5t-18.5 163.5t18.5 163.5t54 112.5t85.5 64.5t113 20.5q48 0 89 -12h111v108h86zM320 82
q75 0 116 48.5t41 134.5v168q0 86 -41 134.5t-116 48.5t-116 -48.5t-41 -134.5v-168q0 -86 41 -134.5t116 -48.5zM320 -180q-32 0 -46.5 12.5t-14.5 35.5v22q0 23 14.5 35.5t46.5 12.5t46.5 -12.5t14.5 -35.5v-22q0 -23 -14.5 -35.5t-46.5 -12.5z" />
    <glyph glyph-name="uni1EE3" unicode="&#x1ee3;" horiz-adv-x="506" 
d="M489 628v-103q0 -35 -15.5 -51t-58.5 -16h-66v-11q59 -7 89.5 -54.5t30.5 -132.5q0 -71 -15 -122.5t-43.5 -84.5t-68.5 -49t-89 -16q-50 0 -89.5 16t-68 49t-43.5 84.5t-15 122.5t15 122.5t43.5 84.5t68 49t89.5 16q43 0 79 -12h71v108h86zM253 74q52 0 79.5 31t27.5 94
v122q0 63 -27.5 94t-79.5 31t-79.5 -31t-27.5 -94v-122q0 -63 27.5 -94t79.5 -31zM253 -180q-32 0 -46.5 12.5t-14.5 35.5v22q0 23 14.5 35.5t46.5 12.5t46.5 -12.5t14.5 -35.5v-22q0 -23 -14.5 -35.5t-46.5 -12.5z" />
    <glyph glyph-name="uni1EE4" unicode="&#x1ee4;" horiz-adv-x="619" 
d="M177 698v-452q0 -84 29 -124t103 -40t103 40t29 124v452h106v-435q0 -71 -12.5 -123t-40.5 -86t-73.5 -50t-111.5 -16t-111.5 16t-73.5 50t-40.5 86t-12.5 123v435h106zM309 -180q-32 0 -46.5 12.5t-14.5 35.5v22q0 23 14.5 35.5t46.5 12.5t46.5 -12.5t14.5 -35.5v-22
q0 -23 -14.5 -35.5t-46.5 -12.5z" />
    <glyph glyph-name="uni1EE5" unicode="&#x1ee5;" horiz-adv-x="525" 
d="M352 86h-13q-31 -98 -129 -98q-69 0 -107.5 47.5t-38.5 139.5v345h103v-331q0 -113 88 -113q40 0 68.5 24.5t28.5 68.5v351h103v-520h-103v86zM258 -180q-32 0 -46.5 12.5t-14.5 35.5v22q0 23 14.5 35.5t46.5 12.5t46.5 -12.5t14.5 -35.5v-22q0 -23 -14.5 -35.5
t-46.5 -12.5z" />
    <glyph glyph-name="uni1EE6" unicode="&#x1ee6;" horiz-adv-x="619" 
d="M177 698v-452q0 -84 29 -124t103 -40t103 40t29 124v452h106v-435q0 -71 -12.5 -123t-40.5 -86t-73.5 -50t-111.5 -16t-111.5 16t-73.5 50t-40.5 86t-12.5 123v435h106zM216 947h121q39 0 55.5 -15.5t16.5 -45.5q0 -24 -9 -46t-29 -51l-35 -49l-56 27l47 102h-111v78z
" />
    <glyph glyph-name="uni1EE7" unicode="&#x1ee7;" horiz-adv-x="525" 
d="M352 86h-13q-31 -98 -129 -98q-69 0 -107.5 47.5t-38.5 139.5v345h103v-331q0 -113 88 -113q40 0 68.5 24.5t28.5 68.5v351h103v-520h-103v86zM167 781h121q39 0 55.5 -15.5t16.5 -45.5q0 -24 -9 -46t-29 -51l-35 -49l-56 27l47 102h-111v78z" />
    <glyph glyph-name="uni1EE8" unicode="&#x1ee8;" horiz-adv-x="629" 
d="M547 263q0 -71 -12.5 -123t-40.5 -86t-73.5 -50t-111.5 -16t-111.5 16t-73.5 50t-40.5 86t-12.5 123v435h106v-452q0 -84 29 -124t103 -40t103 40t29 124v452h94v108h86v-103q0 -20 -3 -33t-11 -21.5t-22.5 -12t-37.5 -4.5v-369v0zM319 749l-63 31l84 182l90 -46z" />
    <glyph glyph-name="uni1EE9" unicode="&#x1ee9;" horiz-adv-x="535" 
d="M339 86q-31 -98 -129 -98q-69 0 -107.5 47.5t-38.5 139.5v345h103v-331q0 -113 88 -113q40 0 68.5 24.5t28.5 68.5v351h93v108h86v-103q0 -20 -3 -33t-10.5 -21.5t-20.5 -12t-34 -4.5h-8v-454h-103v86h-13v0zM271 582l-63 31l84 182l90 -46z" />
    <glyph glyph-name="uni1EEA" unicode="&#x1eea;" horiz-adv-x="629" 
d="M547 263q0 -71 -12.5 -123t-40.5 -86t-73.5 -50t-111.5 -16t-111.5 16t-73.5 50t-40.5 86t-12.5 123v435h106v-452q0 -84 29 -124t103 -40t103 40t29 124v452h94v108h86v-103q0 -20 -3 -33t-11 -21.5t-22.5 -12t-37.5 -4.5v-369v0zM188 916l90 46l84 -182l-63 -31z" />
    <glyph glyph-name="uni1EEB" unicode="&#x1eeb;" horiz-adv-x="535" 
d="M339 86q-31 -98 -129 -98q-69 0 -107.5 47.5t-38.5 139.5v345h103v-331q0 -113 88 -113q40 0 68.5 24.5t28.5 68.5v351h93v108h86v-103q0 -20 -3 -33t-10.5 -21.5t-20.5 -12t-34 -4.5h-8v-454h-103v86h-13v0zM140 749l90 46l84 -182l-63 -31z" />
    <glyph glyph-name="uni1EEC" unicode="&#x1eec;" horiz-adv-x="629" 
d="M547 263q0 -71 -12.5 -123t-40.5 -86t-73.5 -50t-111.5 -16t-111.5 16t-73.5 50t-40.5 86t-12.5 123v435h106v-452q0 -84 29 -124t103 -40t103 40t29 124v452h94v108h86v-103q0 -20 -3 -33t-11 -21.5t-22.5 -12t-37.5 -4.5v-369v0zM216 947h121q39 0 55.5 -15.5
t16.5 -45.5q0 -24 -9 -46t-29 -51l-35 -49l-56 27l47 102h-111v78z" />
    <glyph glyph-name="uni1EED" unicode="&#x1eed;" horiz-adv-x="535" 
d="M339 86q-31 -98 -129 -98q-69 0 -107.5 47.5t-38.5 139.5v345h103v-331q0 -113 88 -113q40 0 68.5 24.5t28.5 68.5v351h93v108h86v-103q0 -20 -3 -33t-10.5 -21.5t-20.5 -12t-34 -4.5h-8v-454h-103v86h-13v0zM167 781h121q39 0 55.5 -15.5t16.5 -45.5q0 -24 -9 -46
t-29 -51l-35 -49l-56 27l47 102h-111v78z" />
    <glyph glyph-name="uni1EEE" unicode="&#x1eee;" horiz-adv-x="629" 
d="M547 263q0 -71 -12.5 -123t-40.5 -86t-73.5 -50t-111.5 -16t-111.5 16t-73.5 50t-40.5 86t-12.5 123v435h106v-452q0 -84 29 -124t103 -40t103 40t29 124v452h94v108h86v-103q0 -20 -3 -33t-11 -21.5t-22.5 -12t-37.5 -4.5v-369v0zM367 779q-20 0 -34 6t-29 16
q-31 20 -53 20q-13 0 -23.5 -6t-22.5 -18l-38 49q32 53 83 53q20 0 34 -6t29 -16q31 -20 53 -20q13 0 23.5 6t22.5 18l38 -49q-32 -53 -83 -53z" />
    <glyph glyph-name="uni1EEF" unicode="&#x1eef;" horiz-adv-x="535" 
d="M339 86q-31 -98 -129 -98q-69 0 -107.5 47.5t-38.5 139.5v345h103v-331q0 -113 88 -113q40 0 68.5 24.5t28.5 68.5v351h93v108h86v-103q0 -20 -3 -33t-10.5 -21.5t-20.5 -12t-34 -4.5h-8v-454h-103v86h-13v0zM319 612q-20 0 -34 6t-29 16q-31 20 -53 20q-13 0 -23.5 -6
t-22.5 -18l-38 49q32 53 83 53q20 0 34 -6t29 -16q31 -20 53 -20q13 0 23.5 6t22.5 18l38 -49q-32 -53 -83 -53z" />
    <glyph glyph-name="uni1EF0" unicode="&#x1ef0;" horiz-adv-x="629" 
d="M547 263q0 -71 -12.5 -123t-40.5 -86t-73.5 -50t-111.5 -16t-111.5 16t-73.5 50t-40.5 86t-12.5 123v435h106v-452q0 -84 29 -124t103 -40t103 40t29 124v452h94v108h86v-103q0 -20 -3 -33t-11 -21.5t-22.5 -12t-37.5 -4.5v-369v0zM309 -180q-32 0 -46.5 12.5t-14.5 35.5
v22q0 23 14.5 35.5t46.5 12.5t46.5 -12.5t14.5 -35.5v-22q0 -23 -14.5 -35.5t-46.5 -12.5z" />
    <glyph glyph-name="uni1EF1" unicode="&#x1ef1;" horiz-adv-x="535" 
d="M339 86q-31 -98 -129 -98q-69 0 -107.5 47.5t-38.5 139.5v345h103v-331q0 -113 88 -113q40 0 68.5 24.5t28.5 68.5v351h93v108h86v-103q0 -20 -3 -33t-10.5 -21.5t-20.5 -12t-34 -4.5h-8v-454h-103v86h-13v0zM258 -180q-32 0 -46.5 12.5t-14.5 35.5v22q0 23 14.5 35.5
t46.5 12.5t46.5 -12.5t14.5 -35.5v-22q0 -23 -14.5 -35.5t-46.5 -12.5z" />
    <glyph glyph-name="Ygrave" unicode="&#x1ef2;" horiz-adv-x="553" 
d="M224 0v270l-216 428h119l145 -312h13l143 312h117l-215 -428v-270h-106zM157 916l90 46l84 -182l-63 -31z" />
    <glyph glyph-name="ygrave" unicode="&#x1ef3;" horiz-adv-x="470" 
d="M354 520h102l-201 -638q-8 -24 -17.5 -40t-23 -25.5t-32.5 -13t-44 -3.5h-72v85h94l24 87l-173 548h105l78 -273l36 -158h11l36 158zM115 749l90 46l84 -182l-63 -31z" />
    <glyph glyph-name="uni1EF4" unicode="&#x1ef4;" horiz-adv-x="553" 
d="M224 0v270l-216 428h119l145 -312h13l143 312h117l-215 -428v-270h-106zM278 -180q-32 0 -46.5 12.5t-14.5 35.5v22q0 23 14.5 35.5t46.5 12.5t46.5 -12.5t14.5 -35.5v-22q0 -23 -14.5 -35.5t-46.5 -12.5z" />
    <glyph glyph-name="uni1EF5" unicode="&#x1ef5;" horiz-adv-x="470" 
d="M354 520h102l-201 -638q-8 -24 -17.5 -40t-23 -25.5t-32.5 -13t-44 -3.5h-72v85h94l24 87l-173 548h105l78 -273l36 -158h11l36 158zM372 -180q-32 0 -46.5 12.5t-14.5 35.5v22q0 23 14.5 35.5t46.5 12.5t46.5 -12.5t14.5 -35.5v-22q0 -23 -14.5 -35.5t-46.5 -12.5z" />
    <glyph glyph-name="uni1EF6" unicode="&#x1ef6;" horiz-adv-x="553" 
d="M224 0v270l-216 428h119l145 -312h13l143 312h117l-215 -428v-270h-106zM185 947h121q39 0 55.5 -15.5t16.5 -45.5q0 -24 -9 -46t-29 -51l-35 -49l-56 27l47 102h-111v78z" />
    <glyph glyph-name="uni1EF7" unicode="&#x1ef7;" horiz-adv-x="470" 
d="M354 520h102l-201 -638q-8 -24 -17.5 -40t-23 -25.5t-32.5 -13t-44 -3.5h-72v85h94l24 87l-173 548h105l78 -273l36 -158h11l36 158zM142 781h121q39 0 55.5 -15.5t16.5 -45.5q0 -24 -9 -46t-29 -51l-35 -49l-56 27l47 102h-111v78z" />
    <glyph glyph-name="uni1EF8" unicode="&#x1ef8;" horiz-adv-x="553" 
d="M224 0v270l-216 428h119l145 -312h13l143 312h117l-215 -428v-270h-106zM347 775q-17 0 -32.5 4.5t-41.5 19.5q-25 14 -39.5 19.5t-25.5 5.5q-17 0 -28 -7t-25 -20l-38 49q17 26 40 40.5t52 14.5q17 0 32.5 -4.5t41.5 -19.5q25 -14 39.5 -19.5t25.5 -5.5q17 0 28 7t25 20
l38 -49q-17 -26 -40 -40.5t-52 -14.5z" />
    <glyph glyph-name="uni1EF9" unicode="&#x1ef9;" horiz-adv-x="470" 
d="M354 520h102l-201 -638q-8 -24 -17.5 -40t-23 -25.5t-32.5 -13t-44 -3.5h-72v85h94l24 87l-173 548h105l78 -273l36 -158h11l36 158zM305 609q-17 0 -32.5 4.5t-41.5 19.5q-25 14 -39.5 19.5t-25.5 5.5q-17 0 -28 -7t-25 -20l-38 49q17 26 40 40.5t52 14.5
q17 0 32.5 -4.5t41.5 -19.5q25 -14 39.5 -19.5t25.5 -5.5q17 0 28 7t25 20l38 -49q-17 -26 -40 -40.5t-52 -14.5z" />
    <glyph glyph-name="endash" unicode="&#x2013;" horiz-adv-x="528" 
d="M32 259v91h464v-91h-464z" />
    <glyph glyph-name="emdash" unicode="&#x2014;" horiz-adv-x="702" 
d="M32 259v91h638v-91h-638z" />
    <glyph glyph-name="quoteleft" unicode="&#x2018;" horiz-adv-x="263" 
d="M131 479q-35 0 -51.5 15.5t-16.5 43.5v21q0 47 25 96t67 85h72q-29 -31 -48.5 -60t-28.5 -65q49 -9 49 -56v-21q0 -28 -16.5 -43.5t-51.5 -15.5z" />
    <glyph glyph-name="quoteright" unicode="&#x2019;" horiz-adv-x="263" 
d="M132 747q35 0 51.5 -15.5t16.5 -43.5v-21q0 -47 -25 -96t-67 -85h-72q29 31 48.5 60t28.5 65q-49 9 -49 56v21q0 28 16.5 43.5t51.5 15.5z" />
    <glyph glyph-name="quotesinglbase" unicode="&#x201a;" horiz-adv-x="263" 
d="M132 145q35 0 51.5 -15.5t16.5 -43.5v-21q0 -47 -25 -96t-67 -85h-72q29 31 48.5 60t28.5 65q-49 9 -49 56v21q0 28 16.5 43.5t51.5 15.5z" />
    <glyph glyph-name="quotedblleft" unicode="&#x201c;" horiz-adv-x="459" 
d="M131 479q-35 0 -51.5 15.5t-16.5 43.5v21q0 47 25 96t67 85h72q-29 -31 -48.5 -60t-28.5 -65q49 -9 49 -56v-21q0 -28 -16.5 -43.5t-51.5 -15.5zM327 479q-35 0 -51.5 15.5t-16.5 43.5v21q0 47 25 96t67 85h72q-29 -31 -48.5 -60t-28.5 -65q49 -9 49 -56v-21
q0 -28 -16.5 -43.5t-51.5 -15.5z" />
    <glyph glyph-name="quotedblright" unicode="&#x201d;" horiz-adv-x="459" 
d="M132 747q35 0 51.5 -15.5t16.5 -43.5v-21q0 -47 -25 -96t-67 -85h-72q29 31 48.5 60t28.5 65q-49 9 -49 56v21q0 28 16.5 43.5t51.5 15.5zM327 747q35 0 51.5 -15.5t16.5 -43.5v-21q0 -47 -25 -96t-67 -85h-72q29 31 48.5 60t28.5 65q-49 9 -49 56v21q0 28 16.5 43.5
t51.5 15.5z" />
    <glyph glyph-name="quotedblbase" unicode="&#x201e;" horiz-adv-x="459" 
d="M132 145q35 0 51.5 -15.5t16.5 -43.5v-21q0 -47 -25 -96t-67 -85h-72q29 31 48.5 60t28.5 65q-49 9 -49 56v21q0 28 16.5 43.5t51.5 15.5zM327 145q35 0 51.5 -15.5t16.5 -43.5v-21q0 -47 -25 -96t-67 -85h-72q29 31 48.5 60t28.5 65q-49 9 -49 56v21q0 28 16.5 43.5
t51.5 15.5z" />
    <glyph glyph-name="dagger" unicode="&#x2020;" horiz-adv-x="482" 
d="M197 -200v641h-162v75h162v224h88v-224h162v-75h-162v-641h-88z" />
    <glyph glyph-name="daggerdbl" unicode="&#x2021;" horiz-adv-x="482" 
d="M197 -200v224h-162v75h162v342h-162v75h162v224h88v-224h162v-75h-162v-342h162v-75h-162v-224h-88z" />
    <glyph glyph-name="bullet" unicode="&#x2022;" horiz-adv-x="372" 
d="M186 177q-126 0 -126 102v47q0 102 126 102t126 -102v-47q0 -102 -126 -102z" />
    <glyph glyph-name="ellipsis" unicode="&#x2026;" horiz-adv-x="766" 
d="M132 -11q-35 0 -52 15.5t-17 44.5v20q0 29 17 44.5t52 15.5t52 -15.5t17 -44.5v-20q0 -29 -17 -44.5t-52 -15.5zM383 -11q-35 0 -52 15.5t-17 44.5v20q0 29 17 44.5t52 15.5t52 -15.5t17 -44.5v-20q0 -29 -17 -44.5t-52 -15.5zM634 -11q-35 0 -52 15.5t-17 44.5v20
q0 29 17 44.5t52 15.5t52 -15.5t17 -44.5v-20q0 -29 -17 -44.5t-52 -15.5z" />
    <glyph glyph-name="perthousand" unicode="&#x2030;" horiz-adv-x="1212" 
d="M164 0l436 698h93l-436 -698h-93zM205 314q-74 0 -113.5 46.5t-39.5 151.5t39.5 151.5t113.5 46.5q73 0 113 -46.5t40 -151.5t-40 -151.5t-113 -46.5zM205 377q32 0 47.5 20.5t15.5 66.5v96q0 46 -15.5 66.5t-47.5 20.5t-47.5 -20.5t-15.5 -66.5v-96q0 -46 15.5 -66.5
t47.5 -20.5zM652 -12q-74 0 -113.5 46.5t-39.5 151.5t39.5 151.5t113.5 46.5q73 0 113 -46.5t40 -151.5t-40 -151.5t-113 -46.5zM652 51q32 0 47.5 20.5t15.5 66.5v96q0 46 -15.5 66.5t-47.5 20.5t-47.5 -20.5t-15.5 -66.5v-96q0 -46 15.5 -66.5t47.5 -20.5zM1007 -12
q-74 0 -113.5 46.5t-39.5 151.5t39.5 151.5t113.5 46.5q73 0 113 -46.5t40 -151.5t-40 -151.5t-113 -46.5zM1007 51q32 0 47.5 20.5t15.5 66.5v96q0 46 -15.5 66.5t-47.5 20.5t-47.5 -20.5t-15.5 -66.5v-96q0 -46 15.5 -66.5t47.5 -20.5z" />
    <glyph glyph-name="guilsinglleft" unicode="&#x2039;" horiz-adv-x="280" 
d="M204 87l-170 147v92l170 147l32 -68l-112 -119v-11l112 -120z" />
    <glyph glyph-name="guilsinglright" unicode="&#x203a;" horiz-adv-x="280" 
d="M76 473l170 -147v-92l-170 -147l-32 68l112 119v11l-112 120z" />
    <glyph glyph-name="fraction" unicode="&#x2044;" horiz-adv-x="100" 
d="M68 434l172 264h78l-172 -264h-78zM-218 0l168 254h79l-169 -254h-78z" />
    <glyph glyph-name="uni2070" unicode="&#x2070;" horiz-adv-x="320" 
d="M160 323q-70 0 -103.5 45t-33.5 145t33.5 145t103.5 45t103.5 -45t33.5 -145t-33.5 -145t-103.5 -45zM160 384q32 0 44.5 20t12.5 65v88q0 45 -12.5 65t-44.5 20t-44.5 -20t-12.5 -65v-88q0 -45 12.5 -65t44.5 -20z" />
    <glyph glyph-name="uni2074" unicode="&#x2074;" horiz-adv-x="320" 
d="M181 329v71h-162v62l136 236h96v-242h46v-56h-46v-71h-70zM181 624h-8l-94 -168h102v168z" />
    <glyph glyph-name="uni2075" unicode="&#x2075;" horiz-adv-x="320" 
d="M272 638h-163l-9 -125h7q11 30 29 43t48 13q51 0 79.5 -30.5t28.5 -86.5q0 -63 -35 -96t-101 -33q-88 0 -128 69l52 41q17 -28 34 -39t42 -11q58 0 58 54v18q0 54 -58 54q-19 0 -31 -7t-21 -21l-64 9l13 208h219v-60z" />
    <glyph glyph-name="uni2076" unicode="&#x2076;" horiz-adv-x="320" 
d="M160 323q-66 0 -100 35t-34 104q0 71 33.5 132.5t94.5 103.5h105q-73 -48 -109.5 -91t-47.5 -95h8q20 53 79 53q50 0 77.5 -30t27.5 -84q0 -61 -35.5 -94.5t-98.5 -33.5zM160 380q56 0 56 54v21q0 54 -56 54t-56 -54v-21q0 -54 56 -54z" />
    <glyph glyph-name="uni2077" unicode="&#x2077;" horiz-adv-x="320" 
d="M91 329l124 309h-117v-67h-64v127h254v-62l-118 -307h-79z" />
    <glyph glyph-name="uni2078" unicode="&#x2078;" horiz-adv-x="320" 
d="M160 323q-63 0 -98 28t-35 79q0 37 21.5 60t53.5 27v7q-27 5 -45 27t-18 56q0 48 31 72.5t90 24.5t90 -24.5t31 -72.5q0 -34 -18 -56t-45 -27v-7q33 -4 54 -27t21 -60q0 -51 -35 -79t-98 -28zM160 546q51 0 51 40v22q0 40 -51 40t-51 -40v-22q0 -40 51 -40zM160 379
q55 0 55 44v23q0 44 -55 44t-55 -44v-23q0 -44 55 -44z" />
    <glyph glyph-name="uni2079" unicode="&#x2079;" horiz-adv-x="320" 
d="M294 565q0 -71 -33.5 -132.5t-94.5 -103.5h-105q73 48 109.5 91t47.5 95h-8q-20 -53 -79 -53q-50 0 -77.5 30t-27.5 84q0 61 35.5 94.5t98.5 33.5q66 0 100 -35t34 -104zM160 647q-56 0 -56 -54v-21q0 -54 56 -54t56 54v21q0 54 -56 54z" />
    <glyph glyph-name="uni2080" unicode="&#x2080;" horiz-adv-x="320" 
d="M160 -6q-70 0 -103.5 45t-33.5 145t33.5 145t103.5 45t103.5 -45t33.5 -145t-33.5 -145t-103.5 -45zM160 55q32 0 44.5 20t12.5 65v88q0 45 -12.5 65t-44.5 20t-44.5 -20t-12.5 -65v-88q0 -45 12.5 -65t44.5 -20z" />
    <glyph glyph-name="uni2081" unicode="&#x2081;" horiz-adv-x="320" 
d="M49 0v60h91v242l-83 -48l-28 52l106 63h79v-309h80v-60h-245z" />
    <glyph glyph-name="uni2082" unicode="&#x2082;" horiz-adv-x="320" 
d="M289 0h-254v67l108 96q33 30 45.5 49.5t12.5 42.5v13q0 21 -13.5 33t-36.5 12q-24 0 -38.5 -12.5t-23.5 -41.5l-62 24q30 91 130 91q122 0 122 -109q0 -20 -5 -37.5t-16 -34.5t-28.5 -34.5t-43.5 -38.5l-74 -60h177v-60z" />
    <glyph glyph-name="uni2083" unicode="&#x2083;" horiz-adv-x="320" 
d="M150 220q23 0 36 11t13 30v12q0 19 -13 30t-36 11t-39.5 -9.5t-30.5 -32.5l-48 42q24 32 52.5 46.5t68.5 14.5q124 0 124 -97q0 -34 -18.5 -55.5t-51.5 -27.5v-8q36 -4 56 -26t20 -58q0 -54 -33.5 -81.5t-98.5 -27.5q-45 0 -75.5 16t-55.5 52l55 42q14 -27 31.5 -38
t43.5 -11q55 0 55 43v19q0 43 -55 43h-39v60h39z" />
    <glyph glyph-name="uni2084" unicode="&#x2084;" horiz-adv-x="320" 
d="M181 0v71h-162v62l136 236h96v-242h46v-56h-46v-71h-70zM181 295h-8l-94 -168h102v168z" />
    <glyph glyph-name="uni2085" unicode="&#x2085;" horiz-adv-x="320" 
d="M109 309l-9 -125h7q11 30 29 43t48 13q51 0 79.5 -30.5t28.5 -86.5q0 -63 -35 -96t-101 -33q-88 0 -128 69l52 41q17 -28 34 -39t42 -11q58 0 58 54v18q0 54 -58 54q-19 0 -31 -7t-21 -21l-64 9l13 208h219v-60h-163z" />
    <glyph glyph-name="uni2086" unicode="&#x2086;" horiz-adv-x="320" 
d="M160 -6q-66 0 -100 35t-34 104q0 71 33.5 132.5t94.5 103.5h105q-73 -48 -109.5 -91t-47.5 -95h8q20 53 79 53q50 0 77.5 -30t27.5 -84q0 -61 -35.5 -94.5t-98.5 -33.5zM160 51q56 0 56 54v21q0 54 -56 54t-56 -54v-21q0 -54 56 -54z" />
    <glyph glyph-name="uni2087" unicode="&#x2087;" horiz-adv-x="320" 
d="M91 0l124 309h-117v-67h-64v127h254v-62l-118 -307h-79z" />
    <glyph glyph-name="uni2088" unicode="&#x2088;" horiz-adv-x="320" 
d="M160 -6q-63 0 -98 28t-35 79q0 37 21.5 60t53.5 27v7q-27 5 -45 27t-18 56q0 48 31 72.5t90 24.5t90 -24.5t31 -72.5q0 -34 -18 -56t-45 -27v-7q33 -4 54 -27t21 -60q0 -51 -35 -79t-98 -28zM160 50q55 0 55 44v23q0 44 -55 44t-55 -44v-23q0 -44 55 -44zM160 217
q51 0 51 40v22q0 40 -51 40t-51 -40v-22q0 -40 51 -40z" />
    <glyph glyph-name="uni2089" unicode="&#x2089;" horiz-adv-x="320" 
d="M294 236q0 -71 -33.5 -132.5t-94.5 -103.5h-105q73 48 109.5 91t47.5 95h-8q-20 -53 -79 -53q-50 0 -77.5 30t-27.5 84q0 61 35.5 94.5t98.5 33.5q66 0 100 -35t34 -104zM160 318q-56 0 -56 -54v-21q0 -54 56 -54t56 54v21q0 54 -56 54z" />
    <glyph glyph-name="uni20A1" unicode="&#x20a1;" horiz-adv-x="567" 
d="M293 2q-14 0 -27.5 2t-26.5 5l-8 -91h-58l10 113q-134 72 -134 318q0 152 49.5 236t145.5 105l9 90h58l-8 -83h8q25 0 46 -3l8 86h58l-9 -99q80 -29 116 -113l-78 -51q-8 22 -20 39.5t-29 28.5l-46 -492q38 8 62.5 32.5t38.5 62.5l77 -52q-26 -56 -71.5 -90t-112.5 -42
l-8 -86h-58zM311 611h-9.5t-9.5 -1l-47 -511q25 -11 57 -12l49 520q-16 4 -40 4zM158 261q0 -82 37 -125l42 460q-79 -37 -79 -159v-176z" />
    <glyph glyph-name="uni20A4" unicode="&#x20a4;" horiz-adv-x="530" 
d="M487 0h-421v109q33 17 50 45.5t19 77.5h-94v72h85q-5 22 -13 44t-15 46h-57v72h43q-1 8 -1.5 17t-0.5 18q0 101 54 155t164 54q75 0 122.5 -27.5t79.5 -81.5l-78 -56q-21 35 -49.5 54t-73.5 19q-57 0 -84 -27.5t-27 -98.5v-13t1 -13h199v-72h-187q6 -24 12.5 -46
t11.5 -44h162v-72h-154q-4 -57 -30 -90t-67 -40v-11h349v-91z" />
    <glyph glyph-name="uni20A6" unicode="&#x20a6;" horiz-adv-x="664" 
d="M339 232h-152v-232h-97v232h-74v72h74v90h-74v72h74v232h119l116 -232h152v232h97v-232h74v-72h-74v-90h73v-72h-73v-232h-118zM187 297h119l-61 122l-52 130h-13l7 -130v-122zM484 149l-7 130v122h-119l61 -122l52 -130h13z" />
    <glyph glyph-name="uni20A8" unicode="&#x20a8;" horiz-adv-x="725" 
d="M77 0v698h193q87 0 126 -49.5t39 -146.5q0 -69 -19.5 -113t-62.5 -64l74 -169q20 -45 43.5 -65t57.5 -20q32 0 48 14t16 37q0 20 -9 38.5t-35 46.5l-18 19q-40 43 -55.5 75t-15.5 69q0 60 35 93t98 33q27 0 53.5 -5.5t49.5 -22.5l-36 -70q-25 20 -57 20q-48 0 -48 -48
q0 -20 12 -37t39 -46l15 -16q21 -21 34.5 -38.5t22 -34t12 -33.5t3.5 -38q0 -62 -40 -100.5t-129 -38.5q-69 0 -112.5 29.5t-73.5 96.5l-82 192h-75v-306h-103zM253 392q38 0 56.5 17t18.5 59v65q0 42 -18.5 59t-56.5 17h-73v-217h73z" />
    <glyph glyph-name="uni20A9" unicode="&#x20a9;" horiz-adv-x="890" 
d="M515 232h-143l-50 -232h-128l-50 232h-109v72h94l-18 90h-76v72h60l-49 232h107l46 -232h134l49 232h129l50 -232h134l45 232h105l-51 -232h61v-72h-77l-20 -90h97v-72h-113l-51 -232h-127zM292 273l27 128h-108l26 -128l21 -160h13zM636 113l21 160l25 128h-108l28 -128
l21 -160h13zM387 297h114l-28 133l-22 161h-13l-22 -161z" />
    <glyph glyph-name="uni20AA" unicode="&#x20aa;" horiz-adv-x="760" 
d="M248 528h96v-441h166q42 0 59 20t17 65v526h97v-528q0 -89 -40.5 -129.5t-121.5 -40.5h-273v528zM79 0v698h273q81 0 121 -40.5t40 -129.5v-359h-96v357q0 45 -17 65t-59 20h-166v-611h-96z" />
    <glyph glyph-name="uni20AB" unicode="&#x20ab;" horiz-adv-x="521" 
d="M331 213h-13q-31 -74 -114 -74q-74 0 -115 50t-41 157t41 157t115 50q83 0 114 -74h13v133h-127v68h127v60h99v-60h58v-68h-58v-464h-99v65zM244 216q38 0 62.5 22.5t24.5 57.5v101q0 35 -24.5 57.5t-62.5 22.5q-45 0 -69 -23.5t-24 -68.5v-77q0 -45 24 -68.5t69 -23.5z
M55 0v78h397v-78h-397z" />
    <glyph glyph-name="Euro" unicode="&#x20ac;" horiz-adv-x="563" 
d="M308 -12q-126 0 -192.5 88.5t-66.5 272.5t66.5 272.5t192.5 88.5q85 0 137 -33t80 -96l-81 -54q-17 47 -49.5 70t-86.5 23q-64 0 -101.5 -38.5t-43.5 -115.5h222v-72h-223v-90h223v-72h-222q6 -77 43.5 -115.5t101.5 -38.5q55 0 89 24.5t52 73.5l81 -53
q-29 -64 -84 -99.5t-138 -35.5z" />
    <glyph glyph-name="uni20AD" unicode="&#x20ad;" horiz-adv-x="584" 
d="M191 0h-106v314h-74v86h74v298h106v-298h54l185 298h117l-154 -237l-52 -61h191v-86h-188l52 -60l166 -254h-121l-196 314h-54v-314z" />
    <glyph glyph-name="uni20AE" unicode="&#x20ae;" horiz-adv-x="546" 
d="M326 220v-220h-107v168l-114 -61v72l114 62v84l-114 -61v72l114 61v211h-184v90h476v-90h-185v-159l115 61v-72l-115 -62v-84l115 62v-73z" />
    <glyph glyph-name="uni20B1" unicode="&#x20b1;" horiz-adv-x="599" 
d="M202 0h-106v331h-73v71h73v74h-73v71h73v151h226q73 0 117 -34t61 -117h83v-71h-75q1 -9 1 -18v-19v-19t-1 -18h75v-71h-83q-17 -83 -61 -117t-117 -34h-120v-180zM202 547h197q-4 36 -25.5 53.5t-55.5 17.5h-116v-71zM400 395v88h-198v-88h198zM318 260q35 0 56 17.5
t25 53.5h-197v-71h116z" />
    <glyph glyph-name="uni20B2" unicode="&#x20b2;" horiz-adv-x="605" 
d="M312 1h-14.5t-13.5 1l-13 -84h-83l16 102q-75 31 -115 112.5t-40 216.5q0 174 66 260.5t195 86.5l13 84h83l-15 -93q49 -14 82 -44t54 -78l-77 -51q-26 67 -80 87l-37 -233h216v-119q0 -61 -17.5 -107t-49 -77.5t-75 -47.5t-95.5 -16zM159 261q0 -112 66 -152l77 501
q-70 0 -106.5 -46t-36.5 -127v-176zM321 285l-31 -197q5 -1 10.5 -1h11.5q66 0 102.5 35.5t36.5 115.5v47h-130z" />
    <glyph glyph-name="uni20B4" unicode="&#x20b4;" horiz-adv-x="575" 
d="M299 -12q-103 0 -152 44t-49 124q0 19 5 38.5t13 37.5h-80v72h120l83 55l64 32v10l-100 -7h-167v72h322q17 32 17 66q0 48 -21.5 68t-71.5 20q-72 0 -120 -58l-57 65q34 41 82.5 62t102.5 21q97 0 142 -44t45 -122q0 -19 -5 -39t-13 -39h79v-72h-120l-82 -55l-64 -32v-10
l99 7h165v-72h-320q-16 -34 -16 -65q0 -48 25.5 -68.5t82.5 -20.5q71 0 121 60l57 -64q-35 -42 -83 -64t-104 -22z" />
    <glyph glyph-name="uni20B5" unicode="&#x20b5;" horiz-adv-x="555" 
d="M303 1h-9.5t-10.5 1l-13 -84h-82l15 101q-75 30 -114.5 111.5t-39.5 218.5q0 175 64 261.5t184 86.5h13l13 83h82l-15 -95q44 -14 74 -43t50 -73l-78 -51q-11 28 -26.5 47.5t-38.5 30.5l-79 -508q2 -1 5.5 -1h5.5q54 0 87 25.5t51 74.5l77 -52q-29 -63 -82 -98.5
t-133 -35.5zM159 261q0 -113 64 -153l77 502q-70 0 -105.5 -45t-35.5 -128v-176z" />
    <glyph glyph-name="uni20B8" unicode="&#x20b8;" horiz-adv-x="545" 
d="M35 618v80h474v-80h-474zM325 453v-453h-106v453h-184v80h474v-80h-184z" />
    <glyph glyph-name="uni20B9" unicode="&#x20b9;" horiz-adv-x="552" 
d="M419 453q-5 -84 -42.5 -127t-105.5 -51l181 -275h-123l-172 271h-108v80h180q42 0 64.5 19t22.5 61v22h-267v80h267v5q0 42 -22.5 61t-64.5 19h-180v80h467v-80h-187v-11q67 -6 85 -74h102v-80h-97z" />
    <glyph glyph-name="uni20BA" unicode="&#x20ba;" horiz-adv-x="547" 
d="M96 242l-84 -45v72l84 45v85l-84 -46v73l84 45v227h106v-175l166 87v-72l-166 -88v-84l166 88v-73l-166 -88v-200h73q34 0 60 11t42.5 35.5t25 64.5t8.5 98h104q0 -148 -57.5 -225t-177.5 -77h-184v242z" />
    <glyph glyph-name="uni20BD" unicode="&#x20bd;" horiz-adv-x="578" 
d="M202 127v-127h-107v127h-80v80h80v90h-80v82h80v319h267q90 0 136 -50t46 -151q0 -100 -46 -150t-136 -50h-160v-90h219v-80h-219zM202 379h152q77 0 77 83v64q0 83 -77 83h-152v-230z" />
    <glyph glyph-name="uni20BF" unicode="&#x20bf;" horiz-adv-x="589" 
d="M309 21h-58v-103h-81v103h-93v656h93v103h81v-103h58v103h81v-104q63 -8 96.5 -49.5t33.5 -118.5q0 -69 -28.5 -101.5t-83.5 -38.5v-11q62 -3 99 -37.5t37 -109.5q0 -44 -11.5 -79t-32 -59.5t-48.5 -37.5t-62 -13v-103h-81v103zM179 398h168q67 0 67 73v45q0 73 -67 73
h-168v-191zM179 109h180q36 0 57 18.5t21 58.5v50q0 40 -21 58.5t-57 18.5h-180v-204z" />
    <glyph glyph-name="uni2113" unicode="&#x2113;" horiz-adv-x="469" 
d="M260 -12q-69 0 -110.5 40t-41.5 118v19l-44 -31l-42 67l86 59v318q0 174 144 174t144 -174q0 -103 -52 -193t-143 -158v-63q0 -48 16 -69t51 -21q65 0 99 106l78 -42q-23 -70 -68.5 -110t-116.5 -40zM250 666q-25 0 -37 -16.5t-12 -60.5v-260q98 95 98 232v28
q0 44 -12 60.5t-37 16.5z" />
    <glyph glyph-name="uni2116" unicode="&#x2116;" horiz-adv-x="942" 
d="M760 362q-67 0 -107 42t-40 132t40 132t107 42t107 -42t40 -132t-40 -132t-107 -42zM77 0v698h124l190 -419l48 -130h13l-7 130v419h102v-698h-125l-189 419l-49 130h-13l8 -130v-419h-102zM760 423q33 0 50 20t17 57v72q0 37 -17 57t-50 20t-50 -20t-17 -57v-72
q0 -37 17 -57t50 -20zM626 239v66h267v-66h-267z" />
    <glyph glyph-name="trademark" unicode="&#x2122;" horiz-adv-x="573" 
d="M96 416v232h-71v50h202v-50h-70v-232h-61zM264 416v282h68l55 -124h5l53 124h69v-282h-53v116l8 90h-7l-73 -156l-73 156h-7l8 -90v-116h-53z" />
    <glyph glyph-name="Omega" unicode="&#x2126;" horiz-adv-x="643" 
d="M46 87h162v11q-76 26 -117 101.5t-41 190.5q0 153 70.5 236.5t201.5 83.5t201.5 -83.5t70.5 -236.5q0 -115 -41 -190.5t-117 -101.5v-11h162v-87h-225v133q48 19 78 67t30 108v155q0 33 -12 61t-33.5 48.5t-50.5 32t-63 11.5t-63 -11.5t-50.5 -32t-33.5 -48.5t-12 -61
v-155q0 -60 30 -108t78 -67v-133h-225v87z" />
    <glyph glyph-name="uni212E" unicode="&#x212e;" horiz-adv-x="648" 
d="M178 89q26 -23 63.5 -37.5t82.5 -14.5q154 0 224 150l43 -24q-81 -175 -267 -175q-66 0 -120.5 24t-93 70t-60 113t-21.5 154t21.5 154t60 113t93 70t120.5 24t120.5 -24t93 -70t60 -113t21.5 -154h-441v-260zM471 398v215q-26 22 -63 35t-84 13q-45 0 -82.5 -13.5
t-63.5 -34.5v-215h293z" />
    <glyph glyph-name="uni2150" unicode="&#x2150;" horiz-adv-x="740" 
d="M49 329v60h91v242l-83 -48l-28 52l106 63h79v-309h80v-60h-245zM388 434l172 264h78l-172 -264h-78zM102 0l168 254h79l-169 -254h-78zM511 0l124 309h-117v-67h-64v127h254v-62l-118 -307h-79z" />
    <glyph glyph-name="uni2151" unicode="&#x2151;" horiz-adv-x="740" 
d="M49 329v60h91v242l-83 -48l-28 52l106 63h79v-309h80v-60h-245zM388 434l172 264h78l-172 -264h-78zM102 0l168 254h79l-169 -254h-78zM714 236q0 -71 -33.5 -132.5t-94.5 -103.5h-105q73 48 109.5 91t47.5 95h-8q-20 -53 -79 -53q-50 0 -77.5 30t-27.5 84
q0 61 35.5 94.5t98.5 33.5q66 0 100 -35t34 -104zM580 318q-56 0 -56 -54v-21q0 -54 56 -54t56 54v21q0 54 -56 54z" />
    <glyph glyph-name="uni2153" unicode="&#x2153;" horiz-adv-x="740" 
d="M49 329v60h91v242l-83 -48l-28 52l106 63h79v-309h80v-60h-245zM388 434l172 264h78l-172 -264h-78zM102 0l168 254h79l-169 -254h-78zM570 220q23 0 36 11t13 30v12q0 19 -13 30t-36 11t-39.5 -9.5t-30.5 -32.5l-48 42q24 32 52.5 46.5t68.5 14.5q124 0 124 -97
q0 -34 -18.5 -55.5t-51.5 -27.5v-8q36 -4 56 -26t20 -58q0 -54 -33.5 -81.5t-98.5 -27.5q-45 0 -75.5 16t-55.5 52l55 42q14 -27 31.5 -38t43.5 -11q55 0 55 43v19q0 43 -55 43h-39v60h39z" />
    <glyph glyph-name="uni2154" unicode="&#x2154;" horiz-adv-x="740" 
d="M289 329h-254v67l108 96q33 30 45.5 49.5t12.5 42.5v13q0 21 -13.5 33t-36.5 12q-24 0 -38.5 -12.5t-23.5 -41.5l-62 24q30 91 130 91q122 0 122 -109q0 -20 -5 -37.5t-16 -34.5t-28.5 -34.5t-43.5 -38.5l-74 -60h177v-60zM388 434l172 264h78l-172 -264h-78zM102 0
l168 254h79l-169 -254h-78zM570 220q23 0 36 11t13 30v12q0 19 -13 30t-36 11t-39.5 -9.5t-30.5 -32.5l-48 42q24 32 52.5 46.5t68.5 14.5q124 0 124 -97q0 -34 -18.5 -55.5t-51.5 -27.5v-8q36 -4 56 -26t20 -58q0 -54 -33.5 -81.5t-98.5 -27.5q-45 0 -75.5 16t-55.5 52
l55 42q14 -27 31.5 -38t43.5 -11q55 0 55 43v19q0 43 -55 43h-39v60h39z" />
    <glyph glyph-name="uni2155" unicode="&#x2155;" horiz-adv-x="740" 
d="M49 329v60h91v242l-83 -48l-28 52l106 63h79v-309h80v-60h-245zM388 434l172 264h78l-172 -264h-78zM102 0l168 254h79l-169 -254h-78zM529 309l-9 -125h7q11 30 29 43t48 13q51 0 79.5 -30.5t28.5 -86.5q0 -63 -35 -96t-101 -33q-88 0 -128 69l52 41q17 -28 34 -39
t42 -11q58 0 58 54v18q0 54 -58 54q-19 0 -31 -7t-21 -21l-64 9l13 208h219v-60h-163z" />
    <glyph glyph-name="uni2156" unicode="&#x2156;" horiz-adv-x="740" 
d="M289 329h-254v67l108 96q33 30 45.5 49.5t12.5 42.5v13q0 21 -13.5 33t-36.5 12q-24 0 -38.5 -12.5t-23.5 -41.5l-62 24q30 91 130 91q122 0 122 -109q0 -20 -5 -37.5t-16 -34.5t-28.5 -34.5t-43.5 -38.5l-74 -60h177v-60zM388 434l172 264h78l-172 -264h-78zM102 0
l168 254h79l-169 -254h-78zM529 309l-9 -125h7q11 30 29 43t48 13q51 0 79.5 -30.5t28.5 -86.5q0 -63 -35 -96t-101 -33q-88 0 -128 69l52 41q17 -28 34 -39t42 -11q58 0 58 54v18q0 54 -58 54q-19 0 -31 -7t-21 -21l-64 9l13 208h219v-60h-163z" />
    <glyph glyph-name="uni2157" unicode="&#x2157;" horiz-adv-x="740" 
d="M150 549q23 0 36 11t13 30v12q0 19 -13 30t-36 11t-39.5 -9.5t-30.5 -32.5l-48 42q24 32 52.5 46.5t68.5 14.5q124 0 124 -97q0 -34 -18.5 -55.5t-51.5 -27.5v-8q36 -4 56 -26t20 -58q0 -54 -33.5 -81.5t-98.5 -27.5q-45 0 -75.5 16t-55.5 52l55 42q14 -27 31.5 -38
t43.5 -11q55 0 55 43v19q0 43 -55 43h-39v60h39zM388 434l172 264h78l-172 -264h-78zM102 0l168 254h79l-169 -254h-78zM529 309l-9 -125h7q11 30 29 43t48 13q51 0 79.5 -30.5t28.5 -86.5q0 -63 -35 -96t-101 -33q-88 0 -128 69l52 41q17 -28 34 -39t42 -11q58 0 58 54v18
q0 54 -58 54q-19 0 -31 -7t-21 -21l-64 9l13 208h219v-60h-163z" />
    <glyph glyph-name="uni2158" unicode="&#x2158;" horiz-adv-x="740" 
d="M181 329v71h-162v62l136 236h96v-242h46v-56h-46v-71h-70zM181 624h-8l-94 -168h102v168zM388 434l172 264h78l-172 -264h-78zM102 0l168 254h79l-169 -254h-78zM529 309l-9 -125h7q11 30 29 43t48 13q51 0 79.5 -30.5t28.5 -86.5q0 -63 -35 -96t-101 -33q-88 0 -128 69
l52 41q17 -28 34 -39t42 -11q58 0 58 54v18q0 54 -58 54q-19 0 -31 -7t-21 -21l-64 9l13 208h219v-60h-163z" />
    <glyph glyph-name="uni2159" unicode="&#x2159;" horiz-adv-x="740" 
d="M49 329v60h91v242l-83 -48l-28 52l106 63h79v-309h80v-60h-245zM388 434l172 264h78l-172 -264h-78zM102 0l168 254h79l-169 -254h-78zM580 -6q-66 0 -100 35t-34 104q0 71 33.5 132.5t94.5 103.5h105q-73 -48 -109.5 -91t-47.5 -95h8q20 53 79 53q50 0 77.5 -30
t27.5 -84q0 -61 -35.5 -94.5t-98.5 -33.5zM580 51q56 0 56 54v21q0 54 -56 54t-56 -54v-21q0 -54 56 -54z" />
    <glyph glyph-name="uni215A" unicode="&#x215a;" horiz-adv-x="740" 
d="M272 638h-163l-9 -125h7q11 30 29 43t48 13q51 0 79.5 -30.5t28.5 -86.5q0 -63 -35 -96t-101 -33q-88 0 -128 69l52 41q17 -28 34 -39t42 -11q58 0 58 54v18q0 54 -58 54q-19 0 -31 -7t-21 -21l-64 9l13 208h219v-60zM388 434l172 264h78l-172 -264h-78zM102 0l168 254
h79l-169 -254h-78zM580 -6q-66 0 -100 35t-34 104q0 71 33.5 132.5t94.5 103.5h105q-73 -48 -109.5 -91t-47.5 -95h8q20 53 79 53q50 0 77.5 -30t27.5 -84q0 -61 -35.5 -94.5t-98.5 -33.5zM580 51q56 0 56 54v21q0 54 -56 54t-56 -54v-21q0 -54 56 -54z" />
    <glyph glyph-name="uni215B" unicode="&#x215b;" horiz-adv-x="740" 
d="M49 329v60h91v242l-83 -48l-28 52l106 63h79v-309h80v-60h-245zM388 434l172 264h78l-172 -264h-78zM102 0l168 254h79l-169 -254h-78zM580 -6q-63 0 -98 28t-35 79q0 37 21.5 60t53.5 27v7q-27 5 -45 27t-18 56q0 48 31 72.5t90 24.5t90 -24.5t31 -72.5q0 -34 -18 -56
t-45 -27v-7q33 -4 54 -27t21 -60q0 -51 -35 -79t-98 -28zM580 50q55 0 55 44v23q0 44 -55 44t-55 -44v-23q0 -44 55 -44zM580 217q51 0 51 40v22q0 40 -51 40t-51 -40v-22q0 -40 51 -40z" />
    <glyph glyph-name="uni215C" unicode="&#x215c;" horiz-adv-x="740" 
d="M150 549q23 0 36 11t13 30v12q0 19 -13 30t-36 11t-39.5 -9.5t-30.5 -32.5l-48 42q24 32 52.5 46.5t68.5 14.5q124 0 124 -97q0 -34 -18.5 -55.5t-51.5 -27.5v-8q36 -4 56 -26t20 -58q0 -54 -33.5 -81.5t-98.5 -27.5q-45 0 -75.5 16t-55.5 52l55 42q14 -27 31.5 -38
t43.5 -11q55 0 55 43v19q0 43 -55 43h-39v60h39zM388 434l172 264h78l-172 -264h-78zM102 0l168 254h79l-169 -254h-78zM580 -6q-63 0 -98 28t-35 79q0 37 21.5 60t53.5 27v7q-27 5 -45 27t-18 56q0 48 31 72.5t90 24.5t90 -24.5t31 -72.5q0 -34 -18 -56t-45 -27v-7
q33 -4 54 -27t21 -60q0 -51 -35 -79t-98 -28zM580 50q55 0 55 44v23q0 44 -55 44t-55 -44v-23q0 -44 55 -44zM580 217q51 0 51 40v22q0 40 -51 40t-51 -40v-22q0 -40 51 -40z" />
    <glyph glyph-name="uni215D" unicode="&#x215d;" horiz-adv-x="740" 
d="M272 638h-163l-9 -125h7q11 30 29 43t48 13q51 0 79.5 -30.5t28.5 -86.5q0 -63 -35 -96t-101 -33q-88 0 -128 69l52 41q17 -28 34 -39t42 -11q58 0 58 54v18q0 54 -58 54q-19 0 -31 -7t-21 -21l-64 9l13 208h219v-60zM388 434l172 264h78l-172 -264h-78zM102 0l168 254
h79l-169 -254h-78zM580 -6q-63 0 -98 28t-35 79q0 37 21.5 60t53.5 27v7q-27 5 -45 27t-18 56q0 48 31 72.5t90 24.5t90 -24.5t31 -72.5q0 -34 -18 -56t-45 -27v-7q33 -4 54 -27t21 -60q0 -51 -35 -79t-98 -28zM580 50q55 0 55 44v23q0 44 -55 44t-55 -44v-23q0 -44 55 -44z
M580 217q51 0 51 40v22q0 40 -51 40t-51 -40v-22q0 -40 51 -40z" />
    <glyph glyph-name="uni215E" unicode="&#x215e;" horiz-adv-x="740" 
d="M91 329l124 309h-117v-67h-64v127h254v-62l-118 -307h-79zM388 434l172 264h78l-172 -264h-78zM102 0l168 254h79l-169 -254h-78zM580 -6q-63 0 -98 28t-35 79q0 37 21.5 60t53.5 27v7q-27 5 -45 27t-18 56q0 48 31 72.5t90 24.5t90 -24.5t31 -72.5q0 -34 -18 -56
t-45 -27v-7q33 -4 54 -27t21 -60q0 -51 -35 -79t-98 -28zM580 50q55 0 55 44v23q0 44 -55 44t-55 -44v-23q0 -44 55 -44zM580 217q51 0 51 40v22q0 40 -51 40t-51 -40v-22q0 -40 51 -40z" />
    <glyph glyph-name="uni2190" unicode="&#x2190;" horiz-adv-x="798" 
d="M255 563l59 -59l-60 -59l-74 -53l5 -12l103 12h463v-86h-463l-103 12l-5 -12l74 -53l60 -59l-59 -59l-214 214z" />
    <glyph glyph-name="uni2191" unicode="&#x2191;" horiz-adv-x="798" 
d="M613 496l-59 -59l-59 60l-53 74l-12 -5l12 -103v-463h-86v463l12 103l-12 5l-53 -74l-59 -60l-59 59l214 214z" />
    <glyph glyph-name="uni2192" unicode="&#x2192;" horiz-adv-x="798" 
d="M543 135l-59 59l60 59l74 53l-5 12l-103 -12h-463v86h463l103 -12l5 12l-74 53l-60 59l59 59l214 -214z" />
    <glyph glyph-name="uni2193" unicode="&#x2193;" horiz-adv-x="798" 
d="M185 202l59 59l59 -60l53 -74l12 5l-12 103v463h86v-463l-12 -103l12 -5l53 74l59 60l59 -59l-214 -214z" />
    <glyph glyph-name="uni2194" unicode="&#x2194;" horiz-adv-x="798" 
d="M252 563l59 -59l-60 -59l-74 -53l5 -12l103 12h228l103 -12l5 12l-74 53l-60 59l59 59l214 -214l-214 -214l-59 59l60 59l74 53l-5 12l-103 -12h-228l-103 12l-5 -12l74 -53l60 -59l-59 -59l-214 214z" />
    <glyph glyph-name="uni2195" unicode="&#x2195;" horiz-adv-x="798" 
d="M185 202l59 59l59 -60l53 -74l12 5l-12 103v228l12 103l-12 5l-53 -74l-59 -60l-59 59l214 214l214 -214l-59 -59l-59 60l-53 74l-12 -5l12 -103v-228l-12 -103l12 -5l53 74l59 60l59 -59l-214 -214z" />
    <glyph glyph-name="uni2196" unicode="&#x2196;" horiz-adv-x="798" 
d="M443 623v-83h-85l-89 15l-5 -12l81 -64l327 -328l-60 -60l-328 327l-64 81l-12 -5l15 -89v-85h-83v303h303z" />
    <glyph glyph-name="uni2197" unicode="&#x2197;" horiz-adv-x="798" 
d="M658 320h-83v85l15 89l-12 5l-64 -81l-328 -327l-60 60l327 328l81 64l-5 12l-89 -15h-85v83h303v-303z" />
    <glyph glyph-name="uni2198" unicode="&#x2198;" horiz-adv-x="798" 
d="M355 94v83h85l89 -15l5 12l-81 64l-327 328l60 60l328 -327l64 -81l12 5l-15 89v85h83v-303h-303z" />
    <glyph glyph-name="uni2199" unicode="&#x2199;" horiz-adv-x="798" 
d="M140 397h83v-85l-15 -89l12 -5l64 81l328 327l60 -60l-327 -328l-81 -64l5 -12l89 15h85v-83h-303v303z" />
    <glyph glyph-name="uni21A9" unicode="&#x21a9;" horiz-adv-x="798" 
d="M258 509l59 -59l-60 -59l-74 -53l5 -12l103 12h255q57 0 89.5 27t32.5 78t-32.5 78t-89.5 27v78q97 0 152.5 -47t55.5 -140t-55.5 -140t-152.5 -47h-255l-103 12l-5 -12l74 -53l60 -59l-59 -59l-214 214z" />
    <glyph glyph-name="uni21AA" unicode="&#x21aa;" horiz-adv-x="798" 
d="M540 81l-59 59l60 59l74 53l-5 12l-103 -12h-255q-97 0 -152.5 47t-55.5 140t55.5 140t152.5 47v-78q-57 0 -89.5 -27t-32.5 -78t32.5 -78t89.5 -27h255l103 -12l5 12l-74 53l-60 59l59 59l214 -214z" />
    <glyph glyph-name="uni21B0" unicode="&#x21b0;" horiz-adv-x="798" 
d="M322 710l59 -59l-60 -59l-74 -53l5 -12l103 12h262v-539h-81v453h-181l-103 12l-5 -12l74 -53l60 -59l-59 -59l-214 214z" />
    <glyph glyph-name="uni21B1" unicode="&#x21b1;" horiz-adv-x="798" 
d="M478 282l-59 59l60 59l74 53l-5 12l-103 -12h-181v-453h-82v539h263l103 -12l5 12l-74 53l-60 59l59 59l214 -214z" />
    <glyph glyph-name="uni21B2" unicode="&#x21b2;" horiz-adv-x="798" 
d="M322 416l59 -59l-60 -59l-74 -53l5 -12l103 12h181v453h81v-539h-262l-103 12l-5 -12l74 -53l60 -59l-59 -59l-214 214z" />
    <glyph glyph-name="uni21B3" unicode="&#x21b3;" horiz-adv-x="798" 
d="M478 -12l-59 59l60 59l74 53l-5 12l-103 -12h-263v539h82v-453h181l103 -12l5 12l-74 53l-60 59l59 59l214 -214z" />
    <glyph glyph-name="uni21B6" unicode="&#x21b6;" horiz-adv-x="798" 
d="M31 262l59 59l59 -60l53 -74l12 5l-12 103v87q0 60 21.5 111t59 88t89.5 58t112 21t112 -21t89.5 -58t59 -88t21.5 -111h-84q0 44 -15 80.5t-41 63t-62 41t-79 14.5t-79 -14.5t-62.5 -41t-41 -63t-14.5 -80.5v-87l-12 -103l12 -5l53 74l59 60l59 -59l-214 -214z" />
    <glyph glyph-name="uni21B7" unicode="&#x21b7;" horiz-adv-x="798" 
d="M339 262l59 59l59 -60l53 -74l12 5l-12 103v87q0 44 -15 80.5t-41 63t-62 41t-79 14.5t-79 -14.5t-62.5 -41t-41 -63t-14.5 -80.5h-84q0 60 21.5 111t59 88t89.5 58t112 21t112 -21t89.5 -58t59 -88t21.5 -111v-87l-12 -103l12 -5l53 74l59 60l59 -59l-214 -214z" />
    <glyph glyph-name="uni21BA" unicode="&#x21ba;" horiz-adv-x="798" 
d="M676 698v-83h-85l-89 16l-5 -12l78 -70q70 -65 99.5 -125.5t29.5 -126.5t-23 -123t-64 -98t-96.5 -64.5t-121.5 -23.5t-121.5 23.5t-96.5 64.5t-64 98t-23 123t22 121.5t64 95.5l58 -58q-28 -29 -43.5 -70t-15.5 -89q0 -50 16.5 -92t46 -73t69.5 -48t88 -17t88 17
t69.5 48t46 73t16.5 92q0 49 -20.5 96.5t-75.5 106.5l-70 75l-12 -5l16 -89v-85h-83v302h302z" />
    <glyph glyph-name="uni21BB" unicode="&#x21bb;" horiz-adv-x="798" 
d="M424 396h-83v85l16 89l-12 5l-70 -75q-55 -59 -75.5 -106.5t-20.5 -96.5q0 -50 16.5 -92t46 -73t69.5 -48t88 -17t88 17t69.5 48t46 73t16.5 92q0 48 -15.5 89t-43.5 70l58 58q42 -40 64 -95.5t22 -121.5t-23 -123t-64 -98t-96.5 -64.5t-121.5 -23.5t-121.5 23.5
t-96.5 64.5t-64 98t-23 123q0 33 7 64.5t22.5 62.5t40 62t59.5 63l78 70l-5 12l-89 -16h-85v83h302v-302z" />
    <glyph glyph-name="uni21C4" unicode="&#x21c4;" horiz-adv-x="798" 
d="M543 297l-59 59l60 59l74 53l-5 12l-103 -12h-463v86h463l103 -12l5 12l-74 53l-60 59l59 59l214 -214zM255 402l59 -59l-60 -59l-74 -53l5 -12l103 12h463v-86h-463l-103 12l-5 -12l74 -53l60 -59l-59 -59l-214 214z" />
    <glyph glyph-name="uni21C6" unicode="&#x21c6;" horiz-adv-x="798" 
d="M543 -26l-59 59l60 59l74 53l-5 12l-103 -12h-463v86h463l103 -12l5 12l-74 53l-60 59l59 59l214 -214zM255 725l59 -59l-60 -59l-74 -53l5 -12l103 12h463v-86h-463l-103 12l-5 -12l74 -53l60 -59l-59 -59l-214 214z" />
    <glyph glyph-name="partialdiff" unicode="&#x2202;" horiz-adv-x="530" 
d="M483 263q0 -142 -57 -208.5t-162 -66.5q-108 0 -163.5 66.5t-55.5 194.5q0 126 49.5 190.5t137.5 64.5q49 0 78 -23.5t46 -66.5h13q-17 78 -81 146.5t-183 137.5h153q225 -146 225 -435zM264 74q54 0 82.5 30.5t28.5 98.5v86q0 68 -28.5 98.5t-82.5 30.5t-82.5 -30.5
t-28.5 -98.5v-86q0 -68 28.5 -98.5t82.5 -30.5z" />
    <glyph glyph-name="Delta" unicode="&#x2206;" horiz-adv-x="596" 
d="M45 88l185 610h136l186 -610v-88h-507v88zM337 454l-34 148h-13l-34 -148l-101 -361h284z" />
    <glyph glyph-name="product" unicode="&#x220f;" horiz-adv-x="645" 
d="M115 -200v805h-82v93h579v-93h-82v-805h-106v805h-203v-805h-106z" />
    <glyph glyph-name="summation" unicode="&#x2211;" horiz-adv-x="479" 
d="M445 -200h-415v95l214 349v10l-214 349v95h415v-93h-301l202 -330v-52l-202 -330h301v-93z" />
    <glyph glyph-name="minus" unicode="&#x2212;" 
d="M58 265v82h424v-82h-424z" />
    <glyph glyph-name="radical" unicode="&#x221a;" 
d="M204 0l-116 435h-75v85h152l70 -271l32 -163h13l32 163l116 450h99l-186 -699h-137z" />
    <glyph glyph-name="infinity" unicode="&#x221e;" horiz-adv-x="690" 
d="M181 105q-80 0 -122 49.5t-42 145.5t43 145.5t128 49.5q69 0 110.5 -33.5t64.5 -105.5h12q6 69 42 104t92 35q80 0 122 -49.5t42 -145.5t-43 -145.5t-128 -49.5q-69 0 -110.5 33.5t-64.5 105.5h-12q-6 -69 -42 -104t-92 -35zM188 187q44 0 72 26t41 83q-16 60 -43.5 88.5
t-69.5 28.5q-35 0 -55.5 -21t-20.5 -64v-56q0 -43 20.5 -64t55.5 -21zM502 187q35 0 55.5 21t20.5 64v56q0 43 -20.5 64t-55.5 21q-44 0 -72 -26t-41 -83q16 -60 43.5 -88.5t69.5 -28.5z" />
    <glyph glyph-name="integral" unicode="&#x222b;" horiz-adv-x="394" 
d="M38 -115h107v742q0 57 27.5 85t88.5 28h95v-85h-108v-742q0 -57 -27.5 -85t-88.5 -28h-94v85z" />
    <glyph glyph-name="approxequal" unicode="&#x2248;" 
d="M375 332q-33 0 -59 9.5t-56 26.5q-25 14 -51 25t-49 11t-38.5 -7.5t-34.5 -22.5l-38 55q17 26 46 42t70 16q33 0 59 -9.5t56 -26.5q25 -14 51 -25t49 -11t38.5 7.5t34.5 22.5l38 -55q-17 -26 -46 -42t-70 -16zM375 125q-33 0 -59 9.5t-56 26.5q-25 14 -51 25t-49 11
t-38.5 -7.5t-34.5 -22.5l-38 55q17 26 46 42t70 16q33 0 59 -9.5t56 -26.5q25 -14 51 -25t49 -11t38.5 7.5t34.5 22.5l38 -55q-17 -26 -46 -42t-70 -16z" />
    <glyph glyph-name="notequal" unicode="&#x2260;" 
d="M103 62l51 101h-96v82h137l62 124h-199v82h241l51 101h87l-51 -101h96v-82h-137l-62 -124h199v-82h-241l-51 -101h-87z" />
    <glyph glyph-name="lessequal" unicode="&#x2264;" 
d="M85 0v82h370v-82h-370zM455 498l-268 -129v-13l268 -130v-99l-370 192v87l370 191v-99z" />
    <glyph glyph-name="greaterequal" unicode="&#x2265;" 
d="M85 226l268 129v13l-268 130v99l370 -192v-87l-370 -191v99zM85 82h370v-82h-370v82z" />
    <glyph glyph-name="lozenge" unicode="&#x25ca;" 
d="M224 0l-187 349l187 349h92l187 -349l-187 -349h-92zM276 94l130 255l-130 255h-12l-130 -255l130 -255h12z" />
    <glyph glyph-name="uni2713" unicode="&#x2713;" horiz-adv-x="754" 
d="M87 488l92 37l131 -318l34 -117h13l35 117l204 496l92 -36l-275 -667h-124z" />
    <glyph glyph-name="uni274C" unicode="&#x274c;" horiz-adv-x="754" 
d="M606 -5l-229 280l-229 -280l-74 56l244 298l-244 298l74 56l229 -281l230 281l73 -56l-243 -298l243 -298z" />
    <glyph glyph-name="uni2B0E" unicode="&#x2b0e;" horiz-adv-x="798" 
d="M330 314l59 59l59 -60l53 -74l12 5l-12 103v181h-453v82h539v-263l-12 -103l12 -5l53 74l59 60l59 -59l-214 -214z" />
    <glyph glyph-name="uni2B0F" unicode="&#x2b0f;" horiz-adv-x="798" 
d="M758 419l-59 -59l-59 60l-53 74l-12 -5l12 -103v-263h-539v82h453v181l12 103l-12 5l-53 -74l-59 -60l-59 59l214 214z" />
    <glyph glyph-name="uni2B10" unicode="&#x2b10;" horiz-adv-x="798" 
d="M40 314l59 59l59 -60l53 -74l12 5l-12 103v263h539v-82h-453v-181l-12 -103l12 -5l53 74l59 60l59 -59l-214 -214z" />
    <glyph glyph-name="uni2B11" unicode="&#x2b11;" horiz-adv-x="798" 
d="M468 419l-59 -59l-59 60l-53 74l-12 -5l12 -103v-181h453v-82h-539v263l12 103l-12 5l-53 -74l-59 -60l-59 59l214 214z" />
    <glyph glyph-name="uniEBE7" unicode="&#xebe7;" horiz-adv-x="644" 
d="M488 160q-20 0 -34.5 11.5t-19.5 31.5l-38 142l121 -82q27 -19 27 -48q0 -23 -16.5 -39t-39.5 -16zM156 160q-23 0 -39.5 16t-16.5 39q0 29 27 48l121 82l-38 -142q-5 -20 -19.5 -31.5t-34.5 -11.5zM396 252h-148v37h148v-37zM396 178h-148v37h148v-37zM322 104
q-20 0 -37.5 10t-26.5 27h128q-9 -17 -26.5 -27t-37.5 -10zM322 363q20 0 37.5 -10t26.5 -27h-128q9 17 26.5 27t37.5 10zM364 373q-14 0 -23.5 9t-9.5 23t9.5 23t23.5 9t23.5 -9t9.5 -23t-9.5 -23t-23.5 -9zM280 373q-14 0 -23.5 9t-9.5 23t9.5 23t23.5 9t23.5 -9t9.5 -23
t-9.5 -23t-23.5 -9zM174 2v19h116l7 -19h-123zM347 2l7 19h116v-19h-123zM174 39v19h104l6 -19h-110zM360 39l6 19h104v-19h-110zM335 -35l6 19h92v-19h-98zM211 -35v19h92l6 -19h-98zM174 -183v19h93v-19h-93zM377 -183v19h93v-19h-93zM174 -220v19h93v-19h-93zM377 -220
v19h93v-19h-93zM279 -90h86l-6 -19h-74zM377 -109v19h56v-19h-56zM377 -72v19h56v-19h-56zM377 -146v19h56v-19h-56zM211 -109v19h56v-19h-56zM211 -72v19h56v-19h-56zM211 -146v19h56v-19h-56zM291 -127h62l-7 -19h-48zM273 -72l-6 19h48l7 -19h-49zM322 -72l7 19h48
l-6 -19h-49zM304 -164h36l-6 -19h-24zM316 -201h12l-6 -19zM285 586q0 16 10.5 26.5t26.5 10.5t26.5 -10.5t10.5 -26.5t-10.5 -26.5t-26.5 -10.5t-26.5 10.5t-10.5 26.5zM239 586q0 -35 24 -59t59 -24t59 24t24 59t-24 59t-59 24t-59 -24t-24 -59zM470 586
q-18 -45 -58 -73.5t-90 -28.5t-90 28.5t-58 73.5q18 45 58 73.5t90 28.5t90 -28.5t58 -73.5zM322 734q-42 0 -78 -18t-61 -47v28q21 38 57.5 60.5t81.5 22.5t81.5 -22.5t57.5 -60.5v-28q-25 29 -61 47t-78 18z" />
    <glyph glyph-name="uniECE0" unicode="&#xece0;" horiz-adv-x="1177" 
d="M1044 604q-45 0 -86 -15t-74 -42t-56 -63.5t-32 -79.5h209v-110h-209q9 -43 32 -79.5t56 -63.5t74 -42t86 -15q19 0 37 3v-107q-6 -1 -16.5 -1.5t-21.5 -0.5q-74 0 -139 28.5t-114 77.5t-77.5 114.5t-28.5 140.5t28.5 140.5t77.5 114.5t114 77.5t139 28.5q11 0 21.5 -0.5
t16.5 -1.5v-107q-18 3 -37 3zM170 349q0 -53 20 -99t54.5 -81t81 -55t98.5 -20q19 0 37 3v-107q-6 -1 -16.5 -1.5t-21.5 -0.5q-74 0 -139 28.5t-114 77.5t-77.5 114.5t-28.5 140.5t28.5 140.5t77.5 114.5t114 77.5t139 28.5q11 0 21.5 -0.5t16.5 -1.5v-107q-18 3 -37 3
q-52 0 -98.5 -20t-81 -55t-54.5 -81.5t-20 -98.5z" />
    <glyph glyph-name="uniEFCC" unicode="&#xefcc;" horiz-adv-x="1046" 
d="M563 349q0 -28 10 -52t27 -41.5t40.5 -27.5t49.5 -10q34 0 62 16t45 42l63 -45q-29 -41 -72.5 -64.5t-95.5 -23.5q-43 0 -80.5 16t-65.5 44t-44 65.5t-16 80.5t16 80.5t44 65.5t65.5 44t80.5 16q52 0 95.5 -23.5t72.5 -64.5l-63 -45q-17 26 -45 42t-62 16
q-26 0 -49.5 -10t-40.5 -27.5t-27 -41.5t-10 -52zM200 54l-72 -52v696h303l-61 -76h-170v-235h136q7 67 37.5 125.5t78.5 102t109.5 68t131.5 24.5q89 0 164 -40t125 -109l-63 -46q-18 25 -42 47t-53.5 38.5t-63 25.5t-69.5 9q-54 0 -104.5 -20.5t-89.5 -58t-62.5 -89.5
t-23.5 -115t23.5 -115t62.5 -89.5t89.5 -58t104.5 -20.5q36 0 69.5 9t63 25.5t53.5 38t42 47.5l63 -46q-50 -69 -125 -109t-164 -40q-70 0 -131.5 24.5t-109.5 68t-78.5 101.5t-37.5 126h-136v-257z" />
    <glyph glyph-name="dieresisacute" unicode="&#xf6d7;" horiz-adv-x="0" 
d="M13 713l-59 31l81 180l85 -45zM-93 593q-32 0 -46 12.5t-14 34.5v25q0 22 14 34.5t46 12.5t46 -12.5t14 -34.5v-25q0 -22 -14 -34.5t-46 -12.5zM93 593q-32 0 -46 12.5t-14 34.5v25q0 22 14 34.5t46 12.5t46 -12.5t14 -34.5v-25q0 -22 -14 -34.5t-46 -12.5z" />
    <glyph glyph-name="dieresisgrave" unicode="&#xf6d8;" horiz-adv-x="0" 
d="M-120 879l85 45l81 -180l-59 -31zM-93 593q-32 0 -46 12.5t-14 34.5v25q0 22 14 34.5t46 12.5t46 -12.5t14 -34.5v-25q0 -22 -14 -34.5t-46 -12.5zM93 593q-32 0 -46 12.5t-14 34.5v25q0 22 14 34.5t46 12.5t46 -12.5t14 -34.5v-25q0 -22 -14 -34.5t-46 -12.5z" />
    <glyph glyph-name="fl" unicode="&#xfb02;" horiz-adv-x="569" 
d="M480 0q-54 0 -78 24.5t-24 76.5v639h103v-655h62v-85h-63zM95 435h-72v85h72v99q0 63 28 92t89 29h83v-85h-97v-135h97v-85h-97v-435h-103v435z" />
    <glyph glyph-name="a.alt01" horiz-adv-x="535" 
d="M362 85h-12q-13 -46 -46.5 -71.5t-79.5 -25.5q-92 0 -137.5 70.5t-45.5 201.5t45.5 201.5t137.5 70.5q46 0 79.5 -25.5t46.5 -71.5h12v85h103v-520h-103v85zM261 76q44 0 72.5 23t28.5 63v196q0 40 -28.5 63t-72.5 23q-53 0 -82 -33t-29 -93v-116q0 -60 29 -93t82 -33z
" />
    <glyph glyph-name="g.alt01" horiz-adv-x="535" 
d="M465 11q0 -110 -55.5 -166.5t-163.5 -56.5q-62 0 -105 20t-72 52l58 68q23 -26 52 -40t67 -14q58 0 87 31.5t29 100.5v82h-12q-13 -46 -46.5 -71t-79.5 -25q-93 0 -138 71t-45 199t45 199t138 71q46 0 79.5 -25.5t46.5 -71.5h12v85h103v-509zM261 79q44 0 72.5 23
t28.5 63v193q0 40 -28.5 63t-72.5 23q-53 0 -82 -33t-29 -93v-113q0 -60 29 -93t82 -33z" />
    <glyph glyph-name="g.alt02" horiz-adv-x="492" 
d="M484 -51q0 -41 -13 -71t-42 -50t-74.5 -30t-111.5 -10q-59 0 -100 8.5t-66.5 24.5t-36.5 39.5t-11 53.5q0 40 21.5 63.5t59.5 29.5v17q-28 10 -41.5 30t-13.5 48q0 35 22.5 56.5t60.5 27.5v12q-84 43 -84 156q0 86 47.5 132t141.5 46q45 0 80 -12h150v-76h-123v-10
q40 -5 60.5 -30t20.5 -62q0 -77 -48 -121t-140 -44q-18 0 -34.5 2t-31.5 5q-20 -6 -30 -20.5t-10 -31.5q0 -20 13.5 -30t44.5 -10h125q89 0 126.5 -37t37.5 -106zM243 252q89 0 89 88v30q0 88 -89 88t-89 -88v-30q0 -88 89 -88zM387 -61q0 29 -19 45t-64 16h-160
q-30 -21 -30 -62q0 -35 22.5 -54.5t76.5 -19.5h62q59 0 85.5 18.5t26.5 56.5z" />
    <glyph glyph-name="zero.alt01" 
d="M270 -12q-59 0 -102 20.5t-71 64t-41 112t-13 164.5t13 164.5t41 112t71 64t102 20.5t102 -20.5t70.5 -64t41 -112t13.5 -164.5t-13.5 -164.5t-41 -112t-70.5 -64t-102 -20.5zM270 79q63 0 88.5 42.5t25.5 130.5v194q0 88 -25.5 130.5t-88.5 42.5t-88.5 -42.5
t-25.5 -130.5v-194q0 -88 25.5 -130.5t88.5 -42.5zM270 295q-52 0 -52 43v22q0 43 52 43t52 -43v-22q0 -43 -52 -43z" />
    <glyph glyph-name="zero.alt02" 
d="M270 -12q-59 0 -102 20.5t-71 64t-41 112t-13 164.5t13 164.5t41 112t71 64t102 20.5t102 -20.5t70.5 -64t41 -112t13.5 -164.5t-13.5 -164.5t-41 -112t-70.5 -64t-102 -20.5zM270 79q63 0 88.5 41.5t25.5 129.5v79l9 121h-10l-113 -159l-105 -130q12 -47 37.5 -64.5
t67.5 -17.5zM270 619q-63 0 -88.5 -41.5t-25.5 -129.5v-79l-9 -121h10l113 159l105 130q-12 47 -37.5 64.5t-67.5 17.5z" />
    <glyph glyph-name="aacute.alt01" horiz-adv-x="535" 
d="M362 85h-12q-13 -46 -46.5 -71.5t-79.5 -25.5q-92 0 -137.5 70.5t-45.5 201.5t45.5 201.5t137.5 70.5q46 0 79.5 -25.5t46.5 -71.5h12v85h103v-520h-103v85zM261 76q44 0 72.5 23t28.5 63v196q0 40 -28.5 63t-72.5 23q-53 0 -82 -33t-29 -93v-116q0 -60 29 -93t82 -33z
M275 582l-63 31l84 182l90 -46z" />
    <glyph glyph-name="abreve.alt01" horiz-adv-x="535" 
d="M362 85h-12q-13 -46 -46.5 -71.5t-79.5 -25.5q-92 0 -137.5 70.5t-45.5 201.5t45.5 201.5t137.5 70.5q46 0 79.5 -25.5t46.5 -71.5h12v85h103v-520h-103v85zM261 76q44 0 72.5 23t28.5 63v196q0 40 -28.5 63t-72.5 23q-53 0 -82 -33t-29 -93v-116q0 -60 29 -93t82 -33z
M265 589q-29 0 -52 7.5t-42 24.5t-34 44.5t-29 68.5l57 29l19 -37q18 -35 36 -48t45 -13t45.5 13t35.5 48l19 37l57 -29q-14 -41 -29.5 -68.5t-34.5 -44.5t-42 -24.5t-51 -7.5z" />
    <glyph glyph-name="acircumflex.alt01" horiz-adv-x="535" 
d="M362 85h-12q-13 -46 -46.5 -71.5t-79.5 -25.5q-92 0 -137.5 70.5t-45.5 201.5t45.5 201.5t137.5 70.5q46 0 79.5 -25.5t46.5 -71.5h12v85h103v-520h-103v85zM261 76q44 0 72.5 23t28.5 63v196q0 40 -28.5 63t-72.5 23q-53 0 -82 -33t-29 -93v-116q0 -60 29 -93t82 -33z
M315 778l113 -151l-53 -41l-110 118l-110 -118l-53 41l113 151h100z" />
    <glyph glyph-name="adieresis.alt01" horiz-adv-x="535" 
d="M362 85h-12q-13 -46 -46.5 -71.5t-79.5 -25.5q-92 0 -137.5 70.5t-45.5 201.5t45.5 201.5t137.5 70.5q46 0 79.5 -25.5t46.5 -71.5h12v85h103v-520h-103v85zM261 76q44 0 72.5 23t28.5 63v196q0 40 -28.5 63t-72.5 23q-53 0 -82 -33t-29 -93v-116q0 -60 29 -93t82 -33z
M174 612q-32 0 -46.5 13t-14.5 36v21q0 23 14.5 36t46.5 13t46.5 -13t14.5 -36v-21q0 -23 -14.5 -36t-46.5 -13zM356 612q-32 0 -46.5 13t-14.5 36v21q0 23 14.5 36t46.5 13t46.5 -13t14.5 -36v-21q0 -23 -14.5 -36t-46.5 -13z" />
    <glyph glyph-name="uni1EA1.alt01" horiz-adv-x="535" 
d="M362 85h-12q-13 -46 -46.5 -71.5t-79.5 -25.5q-92 0 -137.5 70.5t-45.5 201.5t45.5 201.5t137.5 70.5q46 0 79.5 -25.5t46.5 -71.5h12v85h103v-520h-103v85zM261 76q44 0 72.5 23t28.5 63v196q0 40 -28.5 63t-72.5 23q-53 0 -82 -33t-29 -93v-116q0 -60 29 -93t82 -33z
M251 -180q-32 0 -46.5 12.5t-14.5 35.5v22q0 23 14.5 35.5t46.5 12.5t46.5 -12.5t14.5 -35.5v-22q0 -23 -14.5 -35.5t-46.5 -12.5z" />
    <glyph glyph-name="agrave.alt01" horiz-adv-x="535" 
d="M362 85h-12q-13 -46 -46.5 -71.5t-79.5 -25.5q-92 0 -137.5 70.5t-45.5 201.5t45.5 201.5t137.5 70.5q46 0 79.5 -25.5t46.5 -71.5h12v85h103v-520h-103v85zM261 76q44 0 72.5 23t28.5 63v196q0 40 -28.5 63t-72.5 23q-53 0 -82 -33t-29 -93v-116q0 -60 29 -93t82 -33z
M144 749l90 46l84 -182l-63 -31z" />
    <glyph glyph-name="uni1EA3.alt01" horiz-adv-x="535" 
d="M362 85h-12q-13 -46 -46.5 -71.5t-79.5 -25.5q-92 0 -137.5 70.5t-45.5 201.5t45.5 201.5t137.5 70.5q46 0 79.5 -25.5t46.5 -71.5h12v85h103v-520h-103v85zM261 76q44 0 72.5 23t28.5 63v196q0 40 -28.5 63t-72.5 23q-53 0 -82 -33t-29 -93v-116q0 -60 29 -93t82 -33z
M171 781h121q39 0 55.5 -15.5t16.5 -45.5q0 -24 -9 -46t-29 -51l-35 -49l-56 27l47 102h-111v78z" />
    <glyph glyph-name="amacron.alt01" horiz-adv-x="535" 
d="M362 85h-12q-13 -46 -46.5 -71.5t-79.5 -25.5q-92 0 -137.5 70.5t-45.5 201.5t45.5 201.5t137.5 70.5q46 0 79.5 -25.5t46.5 -71.5h12v85h103v-520h-103v85zM261 76q44 0 72.5 23t28.5 63v196q0 40 -28.5 63t-72.5 23q-53 0 -82 -33t-29 -93v-116q0 -60 29 -93t82 -33z
M133 713h264v-80h-264v80z" />
    <glyph glyph-name="aogonek.alt01" horiz-adv-x="535" 
d="M488 -165q-15 -20 -41 -32t-54 -12q-50 0 -76 19.5t-26 55.5t31 67.5t91 57.5l-2 9h-49v85h-12q-13 -47 -46.5 -72t-79.5 -25q-92 0 -137.5 70.5t-45.5 201.5t45.5 201.5t137.5 70.5q46 0 79.5 -25.5t46.5 -71.5h12v85h104v-520q-28 -18 -47 -33.5t-30.5 -29t-16.5 -26.5
t-5 -26q0 -33 35 -33q29 0 47 23zM261 76q44 0 72.5 23t28.5 63v196q0 40 -28.5 63t-72.5 23q-53 0 -82 -33t-29 -93v-116q0 -60 29 -93t82 -33z" />
    <glyph glyph-name="aring.alt01" horiz-adv-x="535" 
d="M362 85h-12q-13 -46 -46.5 -71.5t-79.5 -25.5q-92 0 -137.5 70.5t-45.5 201.5t45.5 201.5t137.5 70.5q46 0 79.5 -25.5t46.5 -71.5h12v85h103v-520h-103v85zM261 76q44 0 72.5 23t28.5 63v196q0 40 -28.5 63t-72.5 23q-53 0 -82 -33t-29 -93v-116q0 -60 29 -93t82 -33z
M265 568q-58 0 -91 35t-33 92t33 92t91 35t91 -35t33 -92t-33 -92t-91 -35zM265 626q24 0 38.5 12t14.5 36v43q0 24 -14.5 36t-38.5 12t-38.5 -12t-14.5 -36v-43q0 -24 14.5 -36t38.5 -12z" />
    <glyph glyph-name="aringacute.alt01" horiz-adv-x="535" 
d="M362 85h-12q-13 -46 -46.5 -71.5t-79.5 -25.5q-92 0 -137.5 70.5t-45.5 201.5t45.5 201.5t137.5 70.5q46 0 79.5 -25.5t46.5 -71.5h12v85h103v-520h-103v85zM261 76q44 0 72.5 23t28.5 63v196q0 40 -28.5 63t-72.5 23q-53 0 -82 -33t-29 -93v-116q0 -60 29 -93t82 -33z
M262 814l-41 36l96 120l60 -51zM265 565q-58 0 -91 31.5t-33 85.5t33 85.5t91 31.5t91 -31.5t33 -85.5t-33 -85.5t-91 -31.5zM265 620q24 0 39 12.5t15 35.5v28q0 23 -15 35.5t-39 12.5t-39 -12.5t-15 -35.5v-28q0 -23 15 -35.5t39 -12.5z" />
    <glyph glyph-name="atilde.alt01" horiz-adv-x="535" 
d="M362 85h-12q-13 -46 -46.5 -71.5t-79.5 -25.5q-92 0 -137.5 70.5t-45.5 201.5t45.5 201.5t137.5 70.5q46 0 79.5 -25.5t46.5 -71.5h12v85h103v-520h-103v85zM261 76q44 0 72.5 23t28.5 63v196q0 40 -28.5 63t-72.5 23q-53 0 -82 -33t-29 -93v-116q0 -60 29 -93t82 -33z
M334 609q-17 0 -32.5 4.5t-41.5 19.5q-25 14 -39.5 19.5t-25.5 5.5q-17 0 -28 -7t-25 -20l-38 49q17 26 40 40.5t52 14.5q17 0 32.5 -4.5t41.5 -19.5q25 -14 39.5 -19.5t25.5 -5.5q17 0 28 7t25 20l38 -49q-17 -26 -40 -40.5t-52 -14.5z" />
    <glyph glyph-name="uni1EAF.alt01" horiz-adv-x="535" 
d="M362 85h-12q-13 -46 -46.5 -71.5t-79.5 -25.5q-92 0 -137.5 70.5t-45.5 201.5t45.5 201.5t137.5 70.5q46 0 79.5 -25.5t46.5 -71.5h12v85h103v-520h-103v85zM261 76q44 0 72.5 23t28.5 63v196q0 40 -28.5 63t-72.5 23q-53 0 -82 -33t-29 -93v-116q0 -60 29 -93t82 -33z
M264 579q-60 0 -97 32.5t-63 107.5l56 29l19 -37q29 -59 85 -59q54 0 85 59l19 37l56 -29q-26 -75 -63 -107.5t-97 -32.5zM274 713l-57 30l85 180l83 -42z" />
    <glyph glyph-name="uni1EB7.alt01" horiz-adv-x="535" 
d="M362 85h-12q-13 -46 -46.5 -71.5t-79.5 -25.5q-92 0 -137.5 70.5t-45.5 201.5t45.5 201.5t137.5 70.5q46 0 79.5 -25.5t46.5 -71.5h12v85h103v-520h-103v85zM261 76q44 0 72.5 23t28.5 63v196q0 40 -28.5 63t-72.5 23q-53 0 -82 -33t-29 -93v-116q0 -60 29 -93t82 -33z
M265 589q-29 0 -52 7.5t-42 24.5t-34 44.5t-29 68.5l57 29l19 -37q18 -35 36 -48t45 -13t45.5 13t35.5 48l19 37l57 -29q-14 -41 -29.5 -68.5t-34.5 -44.5t-42 -24.5t-51 -7.5zM251 -180q-32 0 -46.5 12.5t-14.5 35.5v22q0 23 14.5 35.5t46.5 12.5t46.5 -12.5t14.5 -35.5
v-22q0 -23 -14.5 -35.5t-46.5 -12.5z" />
    <glyph glyph-name="uni1EB1.alt01" horiz-adv-x="535" 
d="M362 85h-12q-13 -46 -46.5 -71.5t-79.5 -25.5q-92 0 -137.5 70.5t-45.5 201.5t45.5 201.5t137.5 70.5q46 0 79.5 -25.5t46.5 -71.5h12v85h103v-520h-103v85zM261 76q44 0 72.5 23t28.5 63v196q0 40 -28.5 63t-72.5 23q-53 0 -82 -33t-29 -93v-116q0 -60 29 -93t82 -33z
M264 579q-60 0 -97 32.5t-63 107.5l56 29l19 -37q29 -59 85 -59q54 0 85 59l19 37l56 -29q-26 -75 -63 -107.5t-97 -32.5zM143 881l83 42l85 -180l-57 -30z" />
    <glyph glyph-name="uni1EB3.alt01" horiz-adv-x="535" 
d="M362 85h-12q-13 -46 -46.5 -71.5t-79.5 -25.5q-92 0 -137.5 70.5t-45.5 201.5t45.5 201.5t137.5 70.5q46 0 79.5 -25.5t46.5 -71.5h12v85h103v-520h-103v85zM261 76q44 0 72.5 23t28.5 63v196q0 40 -28.5 63t-72.5 23q-53 0 -82 -33t-29 -93v-116q0 -60 29 -93t82 -33z
M264 579q-60 0 -97 32.5t-63 107.5l56 29l19 -37q29 -59 85 -59q54 0 85 59l19 37l56 -29q-26 -75 -63 -107.5t-97 -32.5zM166 911h107q39 0 55.5 -15.5t16.5 -45.5q0 -24 -9 -46.5t-30 -51.5l-31 -44l-48 25l47 105h-108v73z" />
    <glyph glyph-name="uni1EB5.alt01" horiz-adv-x="535" 
d="M362 85h-12q-13 -46 -46.5 -71.5t-79.5 -25.5q-92 0 -137.5 70.5t-45.5 201.5t45.5 201.5t137.5 70.5q46 0 79.5 -25.5t46.5 -71.5h12v85h103v-520h-103v85zM261 76q44 0 72.5 23t28.5 63v196q0 40 -28.5 63t-72.5 23q-53 0 -82 -33t-29 -93v-116q0 -60 29 -93t82 -33z
M264 579q-60 0 -97 32.5t-63 107.5l56 29l19 -37q29 -59 85 -59q54 0 85 59l19 37l56 -29q-26 -75 -63 -107.5t-97 -32.5zM331 778q-17 0 -34 5t-40 18q-24 14 -39 20t-26 6q-13 0 -23.5 -4.5t-28.5 -21.5l-36 46q35 56 91 56q17 0 34 -5t40 -18q24 -14 39 -20t26 -6
q14 0 24.5 5.5t27.5 20.5l36 -46q-35 -56 -91 -56z" />
    <glyph glyph-name="uni1EA5.alt01" horiz-adv-x="535" 
d="M362 85h-12q-13 -46 -46.5 -71.5t-79.5 -25.5q-92 0 -137.5 70.5t-45.5 201.5t45.5 201.5t137.5 70.5q46 0 79.5 -25.5t46.5 -71.5h12v85h103v-520h-103v85zM261 76q44 0 72.5 23t28.5 63v196q0 40 -28.5 63t-72.5 23q-53 0 -82 -33t-29 -93v-116q0 -60 29 -93t82 -33z
M421 713l-59 31l80 180l86 -45zM314 760l116 -142l-51 -42l-115 113l-114 -113l-51 42l116 142h99z" />
    <glyph glyph-name="uni1EAD.alt01" horiz-adv-x="535" 
d="M362 85h-12q-13 -46 -46.5 -71.5t-79.5 -25.5q-92 0 -137.5 70.5t-45.5 201.5t45.5 201.5t137.5 70.5q46 0 79.5 -25.5t46.5 -71.5h12v85h103v-520h-103v85zM261 76q44 0 72.5 23t28.5 63v196q0 40 -28.5 63t-72.5 23q-53 0 -82 -33t-29 -93v-116q0 -60 29 -93t82 -33z
M315 778l113 -151l-53 -41l-110 118l-110 -118l-53 41l113 151h100zM251 -180q-32 0 -46.5 12.5t-14.5 35.5v22q0 23 14.5 35.5t46.5 12.5t46.5 -12.5t14.5 -35.5v-22q0 -23 -14.5 -35.5t-46.5 -12.5z" />
    <glyph glyph-name="uni1EA7.alt01" horiz-adv-x="535" 
d="M362 85h-12q-13 -46 -46.5 -71.5t-79.5 -25.5q-92 0 -137.5 70.5t-45.5 201.5t45.5 201.5t137.5 70.5q46 0 79.5 -25.5t46.5 -71.5h12v85h103v-520h-103v85zM261 76q44 0 72.5 23t28.5 63v196q0 40 -28.5 63t-72.5 23q-53 0 -82 -33t-29 -93v-116q0 -60 29 -93t82 -33z
M1 879l85 45l82 -180l-59 -31zM314 760l116 -142l-51 -42l-115 113l-114 -113l-51 42l116 142h99z" />
    <glyph glyph-name="uni1EA9.alt01" horiz-adv-x="535" 
d="M362 85h-12q-13 -46 -46.5 -71.5t-79.5 -25.5q-92 0 -137.5 70.5t-45.5 201.5t45.5 201.5t137.5 70.5q46 0 79.5 -25.5t46.5 -71.5h12v85h103v-520h-103v85zM261 76q44 0 72.5 23t28.5 63v196q0 40 -28.5 63t-72.5 23q-53 0 -82 -33t-29 -93v-116q0 -60 29 -93t82 -33z
M311 911h107q39 0 55.5 -15.5t16.5 -45.5q0 -24 -9 -46.5t-29 -51.5l-32 -44l-47 25l46 105h-108v73zM313 760l117 -142l-51 -42l-115 113l-114 -113l-51 42l117 142h97z" />
    <glyph glyph-name="uni1EAB.alt01" horiz-adv-x="535" 
d="M362 85h-12q-13 -46 -46.5 -71.5t-79.5 -25.5q-92 0 -137.5 70.5t-45.5 201.5t45.5 201.5t137.5 70.5q46 0 79.5 -25.5t46.5 -71.5h12v85h103v-520h-103v85zM261 76q44 0 72.5 23t28.5 63v196q0 40 -28.5 63t-72.5 23q-53 0 -82 -33t-29 -93v-116q0 -60 29 -93t82 -33z
M195 908q32 0 73 -24q29 -17 42 -21.5t24 -4.5q13 0 23.5 5.5t27.5 21.5l37 -46q-33 -56 -91 -56q-33 0 -73 24q-29 17 -42 21.5t-24 4.5q-13 0 -23.5 -5.5t-27.5 -21.5l-37 46q33 56 91 56zM313 755l116 -137l-49 -42l-116 108l-116 -108l-49 42l116 137h98z" />
    <glyph glyph-name="gbreve.alt01" horiz-adv-x="535" 
d="M465 11q0 -110 -55.5 -166.5t-163.5 -56.5q-62 0 -105 20t-72 52l58 68q23 -26 52 -40t67 -14q58 0 87 31.5t29 100.5v82h-12q-13 -46 -46.5 -71t-79.5 -25q-93 0 -138 71t-45 199t45 199t138 71q46 0 79.5 -25.5t46.5 -71.5h12v85h103v-509zM261 79q44 0 72.5 23
t28.5 63v193q0 40 -28.5 63t-72.5 23q-53 0 -82 -33t-29 -93v-113q0 -60 29 -93t82 -33zM264 589q-29 0 -52 7.5t-42 24.5t-34 44.5t-29 68.5l57 29l19 -37q18 -35 36 -48t45 -13t45.5 13t35.5 48l19 37l57 -29q-14 -41 -29.5 -68.5t-34.5 -44.5t-42 -24.5t-51 -7.5z" />
    <glyph glyph-name="gcircumflex.alt01" horiz-adv-x="535" 
d="M465 11q0 -110 -55.5 -166.5t-163.5 -56.5q-62 0 -105 20t-72 52l58 68q23 -26 52 -40t67 -14q58 0 87 31.5t29 100.5v82h-12q-13 -46 -46.5 -71t-79.5 -25q-93 0 -138 71t-45 199t45 199t138 71q46 0 79.5 -25.5t46.5 -71.5h12v85h103v-509zM261 79q44 0 72.5 23
t28.5 63v193q0 40 -28.5 63t-72.5 23q-53 0 -82 -33t-29 -93v-113q0 -60 29 -93t82 -33zM314 778l113 -151l-53 -41l-110 118l-110 -118l-53 41l113 151h100z" />
    <glyph glyph-name="gcommaaccent.alt01" horiz-adv-x="535" 
d="M465 11q0 -110 -55.5 -166.5t-163.5 -56.5q-62 0 -105 20t-72 52l58 68q23 -26 52 -40t67 -14q58 0 87 31.5t29 100.5v82h-12q-13 -46 -46.5 -71t-79.5 -25q-93 0 -138 71t-45 199t45 199t138 71q46 0 79.5 -25.5t46.5 -71.5h12v85h103v-509zM261 79q44 0 72.5 23
t28.5 63v193q0 40 -28.5 63t-72.5 23q-53 0 -82 -33t-29 -93v-113q0 -60 29 -93t82 -33zM264 587q-59 0 -59 48v19q0 37 16.5 72t45.5 63h66q-22 -23 -35 -42.5t-20 -45.5q24 -2 34.5 -14t10.5 -33v-19q0 -48 -59 -48z" />
    <glyph glyph-name="gdotaccent.alt01" horiz-adv-x="535" 
d="M465 11q0 -110 -55.5 -166.5t-163.5 -56.5q-62 0 -105 20t-72 52l58 68q23 -26 52 -40t67 -14q58 0 87 31.5t29 100.5v82h-12q-13 -46 -46.5 -71t-79.5 -25q-93 0 -138 71t-45 199t45 199t138 71q46 0 79.5 -25.5t46.5 -71.5h12v85h103v-509zM261 79q44 0 72.5 23
t28.5 63v193q0 40 -28.5 63t-72.5 23q-53 0 -82 -33t-29 -93v-113q0 -60 29 -93t82 -33zM264 611q-32 0 -46.5 13t-14.5 36v21q0 23 14.5 36t46.5 13t46.5 -13t14.5 -36v-21q0 -23 -14.5 -36t-46.5 -13z" />
    <glyph glyph-name="ijacute" horiz-adv-x="485" 
d="M240 -115h73v635h103v-607q0 -58 -26.5 -85.5t-87.5 -27.5h-62v85zM373 582l-63 31l84 182l90 -46zM133 582l-63 31l84 182l90 -46zM70 0v520h103v-520h-103z" />
    <glyph glyph-name="jacute" horiz-adv-x="244" 
d="M-2 -115h73v635h103v-607q0 -58 -26.5 -85.5t-87.5 -27.5h-62v85zM134 582l-63 31l84 182l90 -46z" />
    </font>
</defs>
</svg>
