<?xml version="1.0" standalone="no"?>
<!DOCTYPE svg PUBLIC "-//W3C//DTD SVG 1.1//EN" "http://www.w3.org/Graphics/SVG/1.1/DTD/svg11.dtd" >
<svg xmlns="http://www.w3.org/2000/svg" xmlns:xlink="http://www.w3.org/1999/xlink" version="1.1">
<metadata>
Created by FontForge 20170731 at Fri Feb 16 16:57:33 2018
 By Aleksey,,,
Copyright 2018 IBM Corp. All rights reserved.
</metadata>
<defs>
<font id="IBMPlexSansCond-SemiBold" horiz-adv-x="540" >
  <font-face 
    font-family="IBM Plex Sans Condensed SemiBold"
    font-weight="600"
    font-stretch="condensed"
    units-per-em="1000"
    panose-1="2 11 7 6 5 2 3 0 2 3"
    ascent="780"
    descent="-220"
    x-height="522"
    cap-height="698"
    bbox="-278 -266 1183 1143"
    underline-thickness="88"
    underline-position="-207"
    unicode-range="U+000D-FB02"
  />
<missing-glyph horiz-adv-x="424" 
d="M32 780h360v-780h-360v780zM304 88v604h-184v-604h184z" />
    <glyph glyph-name="fi" unicode="fi" horiz-adv-x="570" 
d="M91 425h-69v97h69v81q0 71 31.5 104t97.5 33h84v-97h-92v-121h293v-522h-121v425h-172v-425h-121v425zM444 604q-38 0 -55 16.5t-17 44.5v20q0 28 17 44.5t55 16.5t55 -16.5t17 -44.5v-20q0 -28 -17 -44.5t-55 -16.5z" />
    <glyph glyph-name=".notdef" horiz-adv-x="424" 
d="M32 780h360v-780h-360v780zM304 88v604h-184v-604h184z" />
    <glyph glyph-name=".null" horiz-adv-x="0" 
 />
    <glyph glyph-name=".null" horiz-adv-x="0" 
 />
    <glyph glyph-name="uni000D" unicode="&#xd;" horiz-adv-x="212" 
 />
    <glyph glyph-name="space" unicode=" " horiz-adv-x="212" 
 />
    <glyph glyph-name="exclam" unicode="!" horiz-adv-x="284" 
d="M115 206l-37 294v198h128v-198l-36 -294h-55zM142 -12q-40 0 -58 17.5t-18 47.5v24q0 30 18 47.5t58 17.5t58 -17.5t18 -47.5v-24q0 -30 -18 -47.5t-58 -17.5z" />
    <glyph glyph-name="quotedbl" unicode="&#x22;" horiz-adv-x="429" 
d="M64 433v307h107v-307h-107zM257 433v307h107v-307h-107z" />
    <glyph glyph-name="numbersign" unicode="#" horiz-adv-x="582" 
d="M338 183h-147l-28 -183h-78l29 183h-96v71h107l30 190h-98v71h109l28 183h77l-29 -183h147l28 183h78l-29 -183h96v-71h-107l-30 -190h98v-71h-109l-28 -183h-77zM349 254l29 190h-147l-29 -190h147z" />
    <glyph glyph-name="dollar" unicode="$" horiz-adv-x="533" 
d="M503 212q0 -91 -46 -142t-134 -63v-89h-95v88q-61 5 -111.5 30.5t-85.5 71.5l77 69q22 -32 56 -51.5t74 -24.5v213q-97 24 -143 67.5t-46 121.5q0 85 46.5 132t132.5 57v88h95v-88q110 -12 171 -91l-75 -66q-19 25 -45.5 41t-60.5 21v-195q50 -13 86 -29t59 -38.5
t34 -52.5t11 -70zM163 510q0 -37 18.5 -57.5t56.5 -31.5v176q-38 -6 -56.5 -27t-18.5 -60zM392 199q0 38 -19.5 61.5t-59.5 36.5v-194q79 14 79 96z" />
    <glyph glyph-name="percent" unicode="%" horiz-adv-x="870" 
d="M165 0l434 698h106l-434 -698h-106zM207 314q-77 0 -117.5 46.5t-40.5 151.5t40.5 151.5t117.5 46.5q76 0 117 -46.5t41 -151.5t-41 -151.5t-117 -46.5zM207 383q54 0 54 76v106q0 76 -54 76t-54 -76v-106q0 -76 54 -76zM663 -12q-77 0 -117.5 46.5t-40.5 151.5
t40.5 151.5t117.5 46.5q76 0 117 -46.5t41 -151.5t-41 -151.5t-117 -46.5zM663 57q54 0 54 76v106q0 76 -54 76t-54 -76v-106q0 -76 54 -76z" />
    <glyph glyph-name="ampersand" unicode="&#x26;" horiz-adv-x="644" 
d="M410 105h-13q-9 -54 -51 -85.5t-107 -31.5q-93 0 -141.5 52t-48.5 143q0 68 30.5 112.5t96.5 81.5q-75 93 -75 177q0 75 46.5 115.5t133.5 40.5t133.5 -40.5t46.5 -115.5q0 -113 -127 -189l106 -138q12 35 18.5 73.5t8.5 77.5h145v-100h-58q-7 -35 -17.5 -68t-24.5 -61
l125 -149h-147zM281 617q-29 0 -47 -15t-18 -47v-15q0 -23 15 -52.5t43 -57.5q34 19 53 46.5t19 61.5v17q0 32 -18 47t-47 15zM275 89q33 0 57.5 12t42.5 34l-139 177q-64 -35 -64 -108v-20q0 -45 26.5 -70t76.5 -25z" />
    <glyph glyph-name="quotesingle" unicode="'" horiz-adv-x="235" 
d="M64 433v307h107v-307h-107z" />
    <glyph glyph-name="parenleft" unicode="(" horiz-adv-x="303" 
d="M41 311q0 78 12 145.5t33 124t50 101.5t63 78h114q-73 -75 -115.5 -175t-42.5 -217v-114q0 -117 42.5 -217t115.5 -175h-114q-34 33 -63 78t-50 101.5t-33 124t-12 145.5z" />
    <glyph glyph-name="parenright" unicode=")" horiz-adv-x="303" 
d="M262 311q0 -78 -12 -145.5t-33 -124t-50 -101.5t-63 -78h-114q73 75 115.5 175t42.5 217v114q0 117 -42.5 217t-115.5 175h114q34 -33 63 -78t50 -101.5t33 -124t12 -145.5z" />
    <glyph glyph-name="asterisk" unicode="*" horiz-adv-x="514" 
d="M345 305l-82 153h-12l-82 -153l-91 66l121 126l-3 11l-172 31l35 105l157 -77l9 6l-24 174h112l-24 -174l9 -6l157 77l35 -105l-172 -31l-3 -11l121 -126z" />
    <glyph glyph-name="plus" unicode="+" 
d="M217 90v169h-161v95h161v169h106v-169h161v-95h-161v-169h-106z" />
    <glyph glyph-name="comma" unicode="," horiz-adv-x="274" 
d="M137 144q38 0 56.5 -17.5t18.5 -48.5v-23q0 -54 -25 -108t-70 -89h-83q35 35 54.5 66t29.5 66q-56 9 -56 65v23q0 31 18.5 48.5t56.5 17.5z" />
    <glyph glyph-name="hyphen" unicode="-" horiz-adv-x="362" 
d="M50 245v120h262v-120h-262z" />
    <glyph glyph-name="period" unicode="." horiz-adv-x="274" 
d="M137 -11q-38 0 -56.5 17.5t-18.5 48.5v24q0 31 18.5 48.5t56.5 17.5t56.5 -17.5t18.5 -48.5v-24q0 -31 -18.5 -48.5t-56.5 -17.5z" />
    <glyph glyph-name="slash" unicode="/" horiz-adv-x="401" 
d="M5 -151l262 891h101l-262 -891h-101z" />
    <glyph glyph-name="zero" unicode="0" 
d="M270 -12q-61 0 -105 20.5t-72.5 64t-42.5 112t-14 164.5t14 164.5t42.5 112t72.5 64t105 20.5t105 -20.5t72.5 -64t42.5 -112t14 -164.5t-14 -164.5t-42.5 -112t-72.5 -64t-105 -20.5zM270 95q57 0 79.5 36.5t22.5 119.5v196q0 83 -22.5 119.5t-79.5 36.5t-79.5 -36.5
t-22.5 -119.5v-196q0 -83 22.5 -119.5t79.5 -36.5z" />
    <glyph glyph-name="one" unicode="1" 
d="M75 0v104h160v481l-144 -93l-51 85l187 121h131v-594h142v-104h-425z" />
    <glyph glyph-name="two" unicode="2" 
d="M493 0h-438v116l197 197q52 51 73.5 90t21.5 81v30q0 43 -23 66.5t-66 23.5q-86 0 -107 -104l-108 42q23 83 80 125.5t145 42.5q56 0 96 -13.5t65.5 -39t37 -63t11.5 -84.5q0 -35 -7 -64.5t-23.5 -59.5t-44.5 -62.5t-70 -74.5l-145 -144h305v-105z" />
    <glyph glyph-name="three" unicode="3" horiz-adv-x="539" 
d="M236 413q47 0 74.5 23.5t27.5 62.5v27q0 38 -23.5 59.5t-65.5 21.5q-43 0 -74 -21t-54 -62l-80 70q34 54 88 85t127 31q97 0 153.5 -44t56.5 -137q0 -63 -31.5 -104.5t-87.5 -52.5v-15q65 -9 98.5 -49t33.5 -107q0 -99 -62 -156t-171 -57q-153 0 -227 129l91 69
q25 -49 57.5 -72t77.5 -23q50 0 77.5 26t27.5 71v28q0 44 -30 69.5t-85 25.5h-60v102h61z" />
    <glyph glyph-name="four" unicode="4" 
d="M311 0v134h-282v106l236 458h163v-465h83v-99h-83v-134h-117zM127 233h184v345h-15z" />
    <glyph glyph-name="five" unicode="5" 
d="M466 593h-281l-16 -245h15q12 45 44.5 72.5t86.5 27.5q86 0 137 -53t51 -166q0 -116 -59.5 -178.5t-176.5 -62.5q-75 0 -131.5 32.5t-88.5 95.5l90 70q21 -44 54 -69.5t78 -25.5q50 0 76.5 27t26.5 84v34q0 57 -26.5 84t-76.5 27q-63 0 -98 -54l-106 14l24 391h377v-105z
" />
    <glyph glyph-name="six" unicode="6" horiz-adv-x="541" 
d="M274 -12q-117 0 -175 70t-58 203q0 63 16 125t46 119t72 106.5t93 86.5h169q-65 -49 -111 -92t-77.5 -85t-50 -85t-27.5 -92h15q16 48 51.5 74t86.5 26q85 0 134 -55.5t49 -162.5q0 -112 -59.5 -175t-173.5 -63zM274 91q102 0 102 111v30q0 111 -102 111t-102 -111v-30
q0 -111 102 -111z" />
    <glyph glyph-name="seven" unicode="7" horiz-adv-x="539" 
d="M150 0l218 594h-211v-124h-105v228h438v-107l-209 -591h-131z" />
    <glyph glyph-name="eight" unicode="8" 
d="M270 -12q-115 0 -173 54.5t-58 148.5q0 72 34.5 113.5t91.5 52.5v14q-48 13 -77.5 53.5t-29.5 105.5q0 87 52.5 133.5t159.5 46.5t159.5 -46.5t52.5 -133.5q0 -65 -29.5 -105.5t-77.5 -53.5v-14q57 -11 91.5 -52.5t34.5 -113.5q0 -94 -58 -148.5t-173 -54.5zM270 86
q50 0 76 25.5t26 73.5v30q0 48 -26 73.5t-76 25.5t-76 -25.5t-26 -73.5v-30q0 -48 26 -73.5t76 -25.5zM270 408q47 0 71 24t24 66v24q0 42 -24 66t-71 24t-71 -24t-24 -66v-24q0 -42 24 -66t71 -24z" />
    <glyph glyph-name="nine" unicode="9" horiz-adv-x="541" 
d="M500 437q0 -63 -16 -125t-46 -119t-72 -106.5t-93 -86.5h-169q64 49 110.5 92t78 85t50 85t27.5 92h-15q-16 -48 -51.5 -74t-86.5 -26q-85 0 -134 55.5t-49 162.5q0 112 59.5 175t173.5 63q117 0 175 -70t58 -203zM267 355q102 0 102 111v30q0 111 -102 111t-102 -111
v-30q0 -111 102 -111z" />
    <glyph glyph-name="colon" unicode=":" horiz-adv-x="282" 
d="M141 -11q-38 0 -56.5 17.5t-18.5 48.5v24q0 31 18.5 48.5t56.5 17.5t56.5 -17.5t18.5 -48.5v-24q0 -31 -18.5 -48.5t-56.5 -17.5zM141 373q-38 0 -56.5 17.5t-18.5 48.5v24q0 31 18.5 48.5t56.5 17.5t56.5 -17.5t18.5 -48.5v-24q0 -31 -18.5 -48.5t-56.5 -17.5z" />
    <glyph glyph-name="semicolon" unicode=";" horiz-adv-x="282" 
d="M141 144q38 0 56.5 -17.5t18.5 -48.5v-23q0 -54 -25 -108t-70 -89h-83q35 35 54.5 66t29.5 66q-56 9 -56 65v23q0 31 18.5 48.5t56.5 17.5zM141 373q-38 0 -56.5 17.5t-18.5 48.5v24q0 31 18.5 48.5t56.5 17.5t56.5 -17.5t18.5 -48.5v-24q0 -31 -18.5 -48.5t-56.5 -17.5z
" />
    <glyph glyph-name="less" unicode="&#x3c;" horiz-adv-x="539" 
d="M88 247v88l364 254v-129l-242 -162v-14l242 -161v-129z" />
    <glyph glyph-name="equal" unicode="=" 
d="M56 366v96h428v-96h-428zM56 153v96h428v-96h-428z" />
    <glyph glyph-name="greater" unicode="&#x3e;" horiz-adv-x="539" 
d="M87 123l242 162v14l-242 161v129l364 -253v-88l-364 -254v129z" />
    <glyph glyph-name="question" unicode="?" horiz-adv-x="447" 
d="M147 223v157q74 3 109.5 29t35.5 86v24q0 42 -21 63.5t-59 21.5q-39 0 -63 -25.5t-34 -70.5l-100 42q20 78 71.5 119t129.5 41q102 0 153.5 -49.5t51.5 -146.5q0 -45 -12 -79.5t-33 -60t-50.5 -41.5t-64.5 -24v-86h-114zM206 -12q-40 0 -58 17.5t-18 47.5v24
q0 30 18 47.5t58 17.5t58 -17.5t18 -47.5v-24q0 -30 -18 -47.5t-58 -17.5z" />
    <glyph glyph-name="at" unicode="@" horiz-adv-x="811" 
d="M605 -120h-194q-85 0 -152.5 29t-114.5 82.5t-72 130.5t-25 173t25 173t72 130.5t114.5 82.5t152.5 29q81 0 146.5 -25t111 -73.5t70.5 -119.5t25 -162q0 -123 -45 -187t-127 -64q-53 0 -80.5 23t-31.5 60h-12q-6 -36 -30.5 -59t-65.5 -23q-66 0 -104 50.5t-38 160.5
t38 160.5t104 50.5q37 0 58.5 -21t27.5 -55h12v68h94v-283q0 -31 11 -44.5t33 -13.5q34 0 53.5 35t19.5 113v59q0 66 -19.5 118.5t-54.5 89t-85 56t-111 19.5q-67 0 -118.5 -23t-87 -64.5t-54 -99.5t-18.5 -128v-66q0 -70 18.5 -128t54 -99.5t87 -64.5t118.5 -23h194v-67z
M403 159q30 0 48.5 19t18.5 51v123q0 32 -18.5 51t-48.5 19q-35 0 -54.5 -23t-19.5 -64v-89q0 -41 19.5 -64t54.5 -23z" />
    <glyph glyph-name="A" unicode="A" horiz-adv-x="606" 
d="M463 0l-49 182h-225l-49 -182h-120l204 698h158l204 -698h-123zM330 474l-22 111h-14l-22 -111l-53 -191h165z" />
    <glyph glyph-name="B" unicode="B" horiz-adv-x="600" 
d="M73 698h297q82 0 123.5 -47t41.5 -132q0 -69 -29 -107t-86 -42v-15q31 0 56.5 -11.5t44 -32t28.5 -49t10 -62.5q0 -43 -11.5 -79.5t-32.5 -63.5t-50.5 -42t-66.5 -15h-325v698zM198 109h164q31 0 48.5 16.5t17.5 55.5v49q0 39 -17.5 55.5t-48.5 16.5h-164v-193zM198 408
h144q30 0 47 15t17 52v47q0 37 -17 52t-47 15h-144v-181z" />
    <glyph glyph-name="C" unicode="C" horiz-adv-x="581" 
d="M319 -12q-62 0 -112 19.5t-85.5 62.5t-55 111t-19.5 164q0 97 19.5 166t55 113t85.5 65t112 21q46 0 82 -10t64 -29.5t49 -49.5t38 -70l-106 -56q-16 57 -45 82t-82 25q-66 0 -102.5 -43t-36.5 -123v-174q0 -80 36.5 -123t102.5 -43q53 0 84.5 27t49.5 87l102 -60
q-17 -39 -39 -69t-50.5 -50.5t-64.5 -31.5t-82 -11z" />
    <glyph glyph-name="D" unicode="D" horiz-adv-x="625" 
d="M73 698h238q63 0 112.5 -19.5t84 -62t52.5 -108.5t18 -159t-18 -159t-52.5 -108.5t-84 -62t-112.5 -19.5h-238v698zM311 109q64 0 99 39.5t35 118.5v164q0 79 -35 118.5t-99 39.5h-113v-480h113z" />
    <glyph glyph-name="E" unicode="E" horiz-adv-x="544" 
d="M73 0v698h419v-109h-294v-182h257v-106h-257v-192h294v-109h-419z" />
    <glyph glyph-name="F" unicode="F" horiz-adv-x="523" 
d="M73 0v698h408v-109h-283v-182h245v-106h-245v-301h-125z" />
    <glyph glyph-name="G" unicode="G" horiz-adv-x="641" 
d="M474 106h-14q-8 -51 -49 -84.5t-113 -33.5q-121 0 -186 93t-65 266q0 96 19.5 164.5t55.5 113t86.5 65t112.5 20.5q94 0 154 -40.5t94 -116.5l-102 -59q-17 50 -51.5 79t-94.5 29q-66 0 -103.5 -43t-37.5 -123v-174q0 -80 37.5 -123t103.5 -43q60 0 100 32t40 92v51h-122
v106h241v-377h-106v106z" />
    <glyph glyph-name="H" unicode="H" horiz-adv-x="651" 
d="M453 301h-255v-301h-125v698h125v-291h255v291h125v-698h-125v301z" />
    <glyph glyph-name="I" unicode="I" horiz-adv-x="387" 
d="M48 0v99h83v500h-83v99h291v-99h-83v-500h83v-99h-291z" />
    <glyph glyph-name="J" unicode="J" horiz-adv-x="494" 
d="M426 698v-518q0 -91 -52.5 -141.5t-149.5 -50.5q-92 0 -139.5 47.5t-61.5 133.5l113 24q8 -51 28 -74t59 -23q37 0 57.5 22t20.5 73v404h-194v103h319z" />
    <glyph glyph-name="K" unicode="K" horiz-adv-x="614" 
d="M282 320l-84 -111v-209h-125v698h125v-228l-6 -121h14l79 121l159 228h141l-217 -293l234 -405h-146z" />
    <glyph glyph-name="L" unicode="L" horiz-adv-x="473" 
d="M73 0v698h125v-589h245v-109h-370z" />
    <glyph glyph-name="M" unicode="M" horiz-adv-x="737" 
d="M546 398l8 118h-14l-46 -114l-126 -269l-125 269l-46 113h-14l8 -117v-398h-118v698h137l104 -227l51 -143h9l51 143l102 227h137v-698h-118v398z" />
    <glyph glyph-name="N" unicode="N" horiz-adv-x="651" 
d="M246 397l-49 121h-14l8 -125v-393h-118v698h139l193 -397l49 -121h14l-8 125v393h118v-698h-139z" />
    <glyph glyph-name="O" unicode="O" horiz-adv-x="642" 
d="M321 -12q-63 0 -113.5 20.5t-86 64t-55 112t-19.5 164.5t19.5 164.5t55 112t86 64t113.5 20.5t113.5 -20.5t86 -64t55 -112t19.5 -164.5t-19.5 -164.5t-55 -112t-86 -64t-113.5 -20.5zM321 98q68 0 105 42.5t37 121.5v174q0 79 -37 121.5t-105 42.5t-105 -42.5
t-37 -121.5v-174q0 -79 37 -121.5t105 -42.5z" />
    <glyph glyph-name="P" unicode="P" horiz-adv-x="583" 
d="M73 0v698h289q92 0 139.5 -57t47.5 -157t-47.5 -157t-139.5 -57h-164v-270h-125zM198 379h151q32 0 50.5 17.5t18.5 56.5v62q0 39 -18.5 56.5t-50.5 17.5h-151v-210z" />
    <glyph glyph-name="Q" unicode="Q" horiz-adv-x="642" 
d="M482 -176h-92q-66 0 -93.5 30t-27.5 87v51q-51 7 -92.5 31.5t-70 68t-44 107.5t-15.5 150q0 96 19.5 164.5t55 112t86 64t113.5 20.5t113.5 -20.5t86 -64t55 -112t19.5 -164.5q0 -84 -14.5 -146t-41.5 -105.5t-66.5 -69t-88.5 -34.5v-67h98v-103zM321 98q68 0 105 42.5
t37 121.5v174q0 79 -37 121.5t-105 42.5t-105 -42.5t-37 -121.5v-174q0 -79 37 -121.5t105 -42.5z" />
    <glyph glyph-name="R" unicode="R" horiz-adv-x="601" 
d="M198 0h-125v698h289q92 0 139.5 -56t47.5 -156q0 -79 -30 -130.5t-88 -70.5l127 -285h-135l-115 275h-110v-275zM349 379q32 0 50.5 17t18.5 57v62q0 40 -18.5 57t-50.5 17h-151v-210h151z" />
    <glyph glyph-name="S" unicode="S" horiz-adv-x="546" 
d="M269 -12q-78 0 -137.5 28.5t-102.5 84.5l82 79q30 -41 70 -62.5t90 -21.5q112 0 112 102q0 42 -20 64t-66 32l-61 12q-95 20 -140 68t-45 134q0 100 59.5 151t169.5 51q75 0 128.5 -24.5t91.5 -76.5l-82 -77q-26 35 -59 52.5t-81 17.5q-53 0 -78 -21t-25 -68
q0 -39 19.5 -60t63.5 -31l61 -13q51 -11 86.5 -27t58 -40t33 -56.5t10.5 -76.5q0 -108 -61.5 -164.5t-176.5 -56.5z" />
    <glyph glyph-name="T" unicode="T" horiz-adv-x="524" 
d="M324 589v-589h-125v589h-175v109h476v-109h-176z" />
    <glyph glyph-name="U" unicode="U" horiz-adv-x="624" 
d="M193 698v-453q0 -77 25.5 -113t93.5 -36t93.5 36t25.5 113v453h125v-435q0 -72 -12.5 -124t-41.5 -85.5t-75.5 -49.5t-114.5 -16t-114.5 16t-75.5 49.5t-41.5 85.5t-12.5 124v435h125z" />
    <glyph glyph-name="V" unicode="V" horiz-adv-x="583" 
d="M219 0l-205 698h129l118 -432l26 -154h14l26 154l117 432h125l-202 -698h-148z" />
    <glyph glyph-name="W" unicode="W" horiz-adv-x="861" 
d="M168 0l-143 698h124l74 -405l20 -159h14l20 156l85 408h142l85 -408l20 -156h15l20 159l73 405h120l-150 -698h-144l-86 416l-20 151h-14l-20 -151l-88 -416h-147z" />
    <glyph glyph-name="X" unicode="X" horiz-adv-x="595" 
d="M578 0h-144l-136 261h-13l-134 -261h-134l199 357l-189 341h143l124 -242h14l126 242h134l-192 -340z" />
    <glyph glyph-name="Y" unicode="Y" horiz-adv-x="566" 
d="M221 0v267l-214 431h137l135 -300h14l132 300h134l-213 -431v-267h-125z" />
    <glyph glyph-name="Z" unicode="Z" 
d="M506 0h-471v110l320 479h-304v109h446v-110l-320 -479h329v-109z" />
    <glyph glyph-name="bracketleft" unicode="[" horiz-adv-x="299" 
d="M73 -138v898h179v-86h-73v-726h73v-86h-179z" />
    <glyph glyph-name="backslash" unicode="\" horiz-adv-x="401" 
d="M296 -151l-262 891h101l262 -891h-101z" />
    <glyph glyph-name="bracketright" unicode="]" horiz-adv-x="299" 
d="M226 760v-898h-179v86h73v726h-73v86h179z" />
    <glyph glyph-name="asciicircum" unicode="^" horiz-adv-x="538" 
d="M408 293l-135 280h-15l-133 -280l-92 44l180 361h112l180 -361z" />
    <glyph glyph-name="underscore" unicode="_" horiz-adv-x="502" 
d="M27 -180v102h448v-102h-448z" />
    <glyph glyph-name="grave" unicode="`" 
d="M138 754l104 51l88 -189l-73 -35z" />
    <glyph glyph-name="a" unicode="a" horiz-adv-x="507" 
d="M406 0q-81 0 -85 89h-12q-10 -48 -45 -74.5t-87 -26.5q-72 0 -108 40t-36 112q0 82 51 122t147 40h81v45q0 46 -19.5 68t-64.5 22q-37 0 -62 -17.5t-44 -49.5l-71 64q29 45 73.5 72.5t113.5 27.5q195 0 195 -184v-253h46v-97h-73zM223 77q37 0 63 21.5t26 59.5v69h-73
q-84 0 -84 -65v-22q0 -33 18 -48t50 -15z" />
    <glyph glyph-name="b" unicode="b" horiz-adv-x="544" 
d="M66 740h121v-304h14q11 44 44.5 71t78.5 27q92 0 136 -69.5t44 -203.5t-44 -203.5t-136 -69.5q-45 0 -78.5 27t-44.5 71h-14v-86h-121v740zM278 88q47 0 73 29t26 82v124q0 53 -26 82t-73 29q-41 0 -66 -20.5t-25 -57.5v-190q0 -37 25 -57.5t66 -20.5z" />
    <glyph glyph-name="c" unicode="c" horiz-adv-x="464" 
d="M251 -12q-106 0 -161.5 66t-55.5 207t55.5 207t161.5 66q77 0 122.5 -35t65.5 -96l-99 -44q-8 38 -28.5 57.5t-60.5 19.5q-90 0 -90 -108v-134q0 -108 90 -108q42 0 64 20t33 62l94 -45q-46 -135 -191 -135z" />
    <glyph glyph-name="d" unicode="d" horiz-adv-x="544" 
d="M357 86h-14q-11 -44 -44.5 -71t-78.5 -27q-92 0 -136 69.5t-44 203.5t44 203.5t136 69.5q45 0 78.5 -27t44.5 -71h14v304h121v-740h-121v86zM266 88q41 0 66 20.5t25 57.5v190q0 37 -25 57.5t-66 20.5q-47 0 -73 -29t-26 -82v-124q0 -53 26 -82t73 -29z" />
    <glyph glyph-name="e" unicode="e" horiz-adv-x="505" 
d="M263 -12q-51 0 -93.5 16.5t-72.5 50t-46.5 85t-16.5 121.5q0 141 56.5 207t161.5 66t161.5 -66t56.5 -207v-29h-309v-34q0 -52 29 -82t80 -30q43 0 72.5 18.5t50.5 53.5l66 -69q-29 -46 -78 -73.5t-118 -27.5zM252 441q-91 0 -91 -108v-26h182v26q0 108 -91 108z" />
    <glyph glyph-name="f" unicode="f" horiz-adv-x="328" 
d="M91 425h-69v97h69v81q0 71 31.5 104t97.5 33h88v-97h-96v-121h96v-97h-96v-425h-121v425z" />
    <glyph glyph-name="g" unicode="g" horiz-adv-x="492" 
d="M493 -46q0 -41 -12.5 -72t-41.5 -52t-77 -31.5t-118 -10.5q-62 0 -104 8.5t-68 24.5t-37 39t-11 52q0 40 22 63t63 29v19q-32 8 -47.5 30t-15.5 54t22 53.5t64 29.5v13q-85 42 -85 154q0 85 48 131t149 46q45 0 82 -14v19q0 71 68 71h73v-94h-101v-20q37 -18 56 -53.5
t19 -85.5q0 -85 -47.5 -130.5t-149.5 -45.5q-41 0 -76 8q-14 -6 -21 -19t-7 -29q0 -20 13 -30t43 -10h133q89 0 126.5 -38t37.5 -109zM380 -60q0 27 -18 41t-60 14h-161q-22 -19 -22 -56q0 -32 21.5 -49t75.5 -17h59q57 0 81 16.5t24 50.5zM244 264q83 0 83 82v23
q0 82 -83 82t-83 -82v-23q0 -82 83 -82z" />
    <glyph glyph-name="h" unicode="h" horiz-adv-x="532" 
d="M66 740h121v-305h14q31 99 125 99q70 0 108 -47.5t38 -135.5v-351h-121v330q0 102 -76 102q-37 0 -62.5 -21.5t-25.5 -60.5v-350h-121v740z" />
    <glyph glyph-name="i" unicode="i" horiz-adv-x="252" 
d="M126 604q-38 0 -55 16.5t-17 44.5v20q0 28 17 44.5t55 16.5t55 -16.5t17 -44.5v-20q0 -28 -17 -44.5t-55 -16.5zM66 522h121v-522h-121v522z" />
    <glyph glyph-name="j" unicode="j" horiz-adv-x="255" 
d="M68 522h121v-600q0 -63 -29 -92.5t-95 -29.5h-69v97h72v625zM129 604q-38 0 -55 16.5t-17 44.5v20q0 28 17 44.5t55 16.5t55 -16.5t17 -44.5v-20q0 -28 -17 -44.5t-55 -16.5z" />
    <glyph glyph-name="k" unicode="k" horiz-adv-x="511" 
d="M66 740h121v-345l-8 -108h14l61 96l104 139h137l-163 -205l172 -317h-136l-120 239l-61 -76v-163h-121v740z" />
    <glyph glyph-name="l" unicode="l" horiz-adv-x="268" 
d="M184 0q-63 0 -90.5 28t-27.5 88v624h121v-643h60v-97h-63z" />
    <glyph glyph-name="m" unicode="m" horiz-adv-x="802" 
d="M66 0v522h121v-87h14q31 99 123 99q98 0 127 -103h12q17 53 52.5 78t86.5 25q66 0 103 -47.5t37 -135.5v-351h-121v330q0 102 -73 102q-35 0 -59.5 -21.5t-24.5 -60.5v-350h-121v330q0 54 -18 78t-54 24q-35 0 -59.5 -21.5t-24.5 -60.5v-350h-121z" />
    <glyph glyph-name="n" unicode="n" horiz-adv-x="532" 
d="M66 0v522h121v-87h14q31 99 125 99q70 0 108 -47.5t38 -135.5v-351h-121v330q0 102 -76 102q-37 0 -62.5 -21.5t-25.5 -60.5v-350h-121z" />
    <glyph glyph-name="o" unicode="o" horiz-adv-x="506" 
d="M253 -12q-104 0 -161.5 66t-57.5 207t57.5 207t161.5 66t161.5 -66t57.5 -207t-57.5 -207t-161.5 -66zM253 86q92 0 92 108v134q0 108 -92 108t-92 -108v-134q0 -108 92 -108z" />
    <glyph glyph-name="p" unicode="p" horiz-adv-x="544" 
d="M66 522h121v-86h14q11 44 44.5 71t78.5 27q92 0 136 -69.5t44 -203.5t-44 -203.5t-136 -69.5q-45 0 -78.5 27t-44.5 71h-14v-286h-121v722zM278 88q47 0 73 29t26 82v124q0 53 -26 82t-73 29q-41 0 -66 -20.5t-25 -57.5v-190q0 -37 25 -57.5t66 -20.5z" />
    <glyph glyph-name="q" unicode="q" horiz-adv-x="544" 
d="M357 86h-14q-11 -44 -44.5 -71t-78.5 -27q-92 0 -136 69.5t-44 203.5t44 203.5t136 69.5q45 0 78.5 -27t44.5 -71h14v86h121v-722h-121v286zM266 88q41 0 66 20.5t25 57.5v190q0 37 -25 57.5t-66 20.5q-47 0 -73 -29t-26 -82v-124q0 -53 26 -82t73 -29z" />
    <glyph glyph-name="r" unicode="r" horiz-adv-x="357" 
d="M66 0v522h121v-107h14q9 52 37.5 79.5t74.5 27.5h26v-124h-40q-57 0 -84.5 -18t-27.5 -63v-317h-121z" />
    <glyph glyph-name="s" unicode="s" horiz-adv-x="449" 
d="M224 -12q-65 0 -114 23.5t-86 70.5l74 72q25 -35 56 -53t72 -18q76 0 76 64q0 25 -12.5 39.5t-42.5 19.5l-49 9q-82 15 -119 51t-37 105q0 82 48 122.5t136 40.5q61 0 105.5 -20t77.5 -59l-71 -71q-20 25 -48.5 40t-63.5 15q-70 0 -70 -63q0 -26 14 -39.5t44 -18.5l50 -9
q82 -15 117.5 -50.5t35.5 -99.5q0 -81 -50 -126t-143 -45z" />
    <glyph glyph-name="t" unicode="t" horiz-adv-x="334" 
d="M210 0q-63 0 -91 28t-28 89v308h-69v97h36q26 0 35.5 12t9.5 38v92h109v-142h94v-97h-94v-328h86v-97h-88z" />
    <glyph glyph-name="u" unicode="u" horiz-adv-x="533" 
d="M346 88h-14q-30 -100 -127 -100q-70 0 -107.5 47.5t-37.5 136.5v350h121v-330q0 -103 76 -103q37 0 63 22t26 61v350h121v-522h-121v88z" />
    <glyph glyph-name="v" unicode="v" horiz-adv-x="476" 
d="M162 0l-154 522h122l75 -278l29 -141h14l29 141l75 278h117l-154 -522h-153z" />
    <glyph glyph-name="w" unicode="w" horiz-adv-x="739" 
d="M16 522h119l51 -244l25 -168h12l30 168l58 244h122l59 -244l30 -168h12l25 168l53 244h112l-127 -522h-136l-61 254l-23 155h-13l-24 -155l-61 -254h-136z" />
    <glyph glyph-name="x" unicode="x" horiz-adv-x="488" 
d="M15 0l158 267l-156 255h132l93 -168h13l93 168h124l-154 -258l160 -264h-133l-96 176h-13l-98 -176h-123z" />
    <glyph glyph-name="y" unicode="y" horiz-adv-x="483" 
d="M353 522h121l-199 -631q-17 -53 -48 -72t-87 -19h-82v97h103l21 74l-174 551h123l78 -282l28 -137h12l28 138z" />
    <glyph glyph-name="z" unicode="z" horiz-adv-x="452" 
d="M34 0v95l241 330h-233v97h370v-94l-242 -331h248v-97h-384z" />
    <glyph glyph-name="braceleft" unicode="{" horiz-adv-x="329" 
d="M186 -138q-37 0 -58 19.5t-21 62.5v240q0 38 -23.5 58t-63.5 20v98q40 0 63.5 20t23.5 58v240q0 43 21 62.5t58 19.5h99v-85h-73v-244q0 -56 -33 -84.5t-93 -28.5v-14q60 0 93 -28.5t33 -84.5v-244h73v-85h-99z" />
    <glyph glyph-name="bar" unicode="|" horiz-adv-x="346" 
d="M122 -138v898h102v-898h-102z" />
    <glyph glyph-name="braceright" unicode="}" horiz-adv-x="329" 
d="M143 760q37 0 58 -19.5t21 -62.5v-240q0 -38 23.5 -58t63.5 -20v-98q-40 0 -63.5 -20t-23.5 -58v-240q0 -43 -21 -62.5t-58 -19.5h-99v85h73v244q0 56 33 84.5t93 28.5v14q-60 0 -93 28.5t-33 84.5v244h-73v85h99z" />
    <glyph glyph-name="asciitilde" unicode="~" 
d="M373 221q-33 0 -58.5 9t-55.5 26q-25 14 -50 25t-48 11q-21 0 -37 -7t-35 -22l-42 66q17 26 48 43t72 17q33 0 58.5 -9t55.5 -26q25 -14 50 -25t48 -11q21 0 37 7t35 22l42 -66q-17 -26 -48 -43t-72 -17z" />
    <glyph glyph-name="uni00A0" unicode="&#xa0;" horiz-adv-x="212" 
 />
    <glyph glyph-name="exclamdown" unicode="&#xa1;" horiz-adv-x="284" 
d="M78 -176v197l36 295h55l37 -295v-197h-128zM142 380q-40 0 -58 17.5t-18 47.5v24q0 30 18 47.5t58 17.5t58 -17.5t18 -47.5v-24q0 -30 -18 -47.5t-58 -17.5z" />
    <glyph glyph-name="cent" unicode="&#xa2;" horiz-adv-x="491" 
d="M214 -114v106q-86 13 -131 77t-45 189t45 189t131 77v106h89v-105q60 -9 96 -40t53 -80l-87 -48q-12 66 -71 79v-356q32 7 50.5 27.5t28.5 55.5l85 -52q-36 -104 -155 -119v-106h-89zM155 192q0 -93 68 -111v354q-68 -18 -68 -111v-132z" />
    <glyph glyph-name="sterling" unicode="&#xa3;" horiz-adv-x="520" 
d="M62 0v119q35 18 54 48t19 82q0 11 -1.5 22t-3.5 22h-95v100h60q-8 24 -13 50.5t-5 59.5q0 100 55.5 153.5t166.5 53.5q74 0 119 -28.5t80 -83.5l-91 -65q-23 36 -47.5 52.5t-56.5 16.5q-50 0 -75 -24t-25 -86q0 -27 4.5 -51t10.5 -48h171v-100h-145q5 -23 5 -41
q0 -63 -27 -96.5t-74 -37.5v-13h336v-105h-422z" />
    <glyph glyph-name="yen" unicode="&#xa5;" horiz-adv-x="575" 
d="M349 137v-137h-126v137h-152v78h152v84h-152v78h104l-155 321h138l125 -293h14l125 293h134l-158 -321h103v-78h-152v-84h152v-78h-152z" />
    <glyph glyph-name="brokenbar" unicode="&#xa6;" horiz-adv-x="346" 
d="M122 403v357h102v-357h-102zM122 -138v357h102v-357h-102z" />
    <glyph glyph-name="section" unicode="&#xa7;" horiz-adv-x="515" 
d="M436 9q0 -85 -50.5 -126.5t-140.5 -41.5q-51 0 -94 15t-79 50l60 75q22 -23 49.5 -36t64.5 -13q87 0 87 73q0 32 -19 49.5t-62 30.5l-67 20q-71 21 -103.5 57.5t-32.5 94.5q0 96 98 135v14q-33 23 -50.5 55t-17.5 81q0 85 50.5 126.5t140.5 41.5q51 0 94 -15t79 -50
l-60 -75q-22 23 -49.5 36t-64.5 13q-87 0 -87 -73q0 -32 19 -49.5t62 -30.5l67 -20q71 -21 103.5 -57.5t32.5 -94.5q0 -96 -98 -135v-14q33 -23 50.5 -55t17.5 -81zM364 259q0 35 -16.5 58.5t-63.5 37.5l-65 19q-14 4 -30 11q-20 -23 -29 -45t-9 -48q0 -35 16.5 -58.5
t63.5 -37.5l65 -19q14 -4 30 -11q20 23 29 45t9 48z" />
    <glyph glyph-name="dieresis" unicode="&#xa8;" 
d="M177 607q-37 0 -51.5 13.5t-14.5 39.5v25q0 26 14.5 39.5t51.5 13.5t51.5 -13.5t14.5 -39.5v-25q0 -26 -14.5 -39.5t-51.5 -13.5zM363 607q-37 0 -51.5 13.5t-14.5 39.5v25q0 26 14.5 39.5t51.5 13.5t51.5 -13.5t14.5 -39.5v-25q0 -26 -14.5 -39.5t-51.5 -13.5z" />
    <glyph glyph-name="copyright" unicode="&#xa9;" horiz-adv-x="712" 
d="M356 -12q-71 0 -129.5 23.5t-100.5 69.5t-65 113.5t-23 154.5t23 154.5t65 113.5t100.5 69.5t129.5 23.5q70 0 128.5 -23.5t100.5 -69.5t65.5 -113.5t23.5 -154.5t-23.5 -154.5t-65.5 -113.5t-100.5 -69.5t-128.5 -23.5zM356 45q56 0 102 20t78.5 55t50.5 84t18 106v78
q0 57 -18 106t-50.5 84t-78.5 55t-102 20t-102 -20t-78.5 -55t-50.5 -84t-18 -106v-78q0 -57 18 -106t50.5 -84t78.5 -55t102 -20zM362 139q-88 0 -133.5 52t-45.5 158t45.5 158t133.5 52q118 0 162 -104l-83 -42q-25 61 -79 61q-33 0 -50 -20t-17 -58v-94q0 -38 17 -58
t50 -20q26 0 43 14t30 46l82 -42q-41 -103 -155 -103z" />
    <glyph glyph-name="ordfeminine" unicode="&#xaa;" horiz-adv-x="395" 
d="M233 405q-7 -32 -30.5 -49t-61.5 -17q-48 0 -74 26t-26 76q0 60 34.5 85.5t106.5 25.5h53v30q0 34 -13 48t-46 14q-54 0 -77 -47l-48 44q43 69 135 69q136 0 136 -125v-171h35v-67h-56q-25 0 -41 14.5t-18 43.5h-9zM184 500q-29 0 -44 -11t-15 -31v-19q0 -40 48 -40
q26 0 44 15t18 43v43h-51z" />
    <glyph glyph-name="guillemotleft" unicode="&#xab;" horiz-adv-x="494" 
d="M209 80l-169 144v105l169 144l36 -77l-106 -113v-13l106 -113zM419 80l-169 144v105l169 144l36 -77l-106 -113v-13l106 -113z" />
    <glyph glyph-name="logicalnot" unicode="&#xac;" horiz-adv-x="541" 
d="M380 78v181h-323v95h428v-276h-105z" />
    <glyph glyph-name="uni00AD" unicode="&#xad;" horiz-adv-x="363" 
d="M51 245v120h262v-120h-262z" />
    <glyph glyph-name="registered" unicode="&#xae;" horiz-adv-x="420" 
d="M210 298q-39 0 -72.5 13t-58 39t-39 64.5t-14.5 89.5t14.5 89.5t39 64.5t58 39t72.5 13t72.5 -13t58 -39t39 -64.5t14.5 -89.5t-14.5 -89.5t-39 -64.5t-58 -39t-72.5 -13zM210 339q62 0 99 38t37 103v48q0 65 -37 103t-99 38t-99 -38t-37 -103v-48q0 -65 37 -103t99 -38z
M185 400h-52v208h90q36 0 53 -16.5t17 -52.5q0 -50 -33 -63l39 -76h-57l-32 69h-25v-69zM216 510q23 0 23 20v17q0 20 -23 20h-31v-57h31z" />
    <glyph glyph-name="macron" unicode="&#xaf;" 
d="M135 720h270v-91h-270v91z" />
    <glyph glyph-name="degree" unicode="&#xb0;" horiz-adv-x="422" 
d="M211 362q-36 0 -67 12.5t-54 35t-36 54.5t-13 72t13 72t36 54.5t54 35t67 12.5t67 -12.5t54 -35t36 -54.5t13 -72t-13 -72t-36 -54.5t-54 -35t-67 -12.5zM211 442q38 0 60 24.5t22 69.5t-22 69.5t-60 24.5t-60 -24.5t-22 -69.5t22 -69.5t60 -24.5z" />
    <glyph glyph-name="plusminus" unicode="&#xb1;" 
d="M217 194v158h-161v95h161v158h106v-158h161v-95h-161v-158h-106zM56 0v92h428v-92h-428z" />
    <glyph glyph-name="twosuperior" unicode="&#xb2;" horiz-adv-x="319" 
d="M290 329h-258v75l103 90q17 15 28.5 27t18 22.5t9.5 20.5t3 21v8q0 20 -12.5 31t-33.5 11q-26 0 -38 -16t-18 -36l-69 26q30 95 133 95q126 0 126 -111q0 -20 -5 -37.5t-16 -34.5t-30 -35t-46 -39l-65 -50h170v-68z" />
    <glyph glyph-name="threesuperior" unicode="&#xb3;" horiz-adv-x="320" 
d="M144 553q23 0 35 11t12 26v10q0 15 -12 26t-35 11q-38 0 -66 -42l-52 48q26 32 55 46.5t70 14.5q61 0 95 -24t34 -75q0 -35 -20.5 -56t-49.5 -24v-11q35 -3 55.5 -23.5t20.5 -58.5q0 -57 -36.5 -83t-100.5 -26q-86 0 -134 70l61 47q11 -20 27 -34.5t45 -14.5
q26 0 37.5 11t11.5 30v12q0 19 -11.5 30t-37.5 11h-37v68h33z" />
    <glyph glyph-name="acute" unicode="&#xb4;" 
d="M283 581l-73 35l88 189l104 -51z" />
    <glyph glyph-name="mu" unicode="&#xb5;" horiz-adv-x="539" 
d="M63 -200v722h121v-330q0 -103 77 -103q36 0 62 22t26 61v350h121v-522h-121v88h-14q-8 -48 -31.5 -74t-64.5 -26q-26 0 -46 11t-27 34h-15l33 -116v-117h-121z" />
    <glyph glyph-name="paragraph" unicode="&#xb6;" horiz-adv-x="603" 
d="M217 278q-43 0 -77.5 15t-58.5 42.5t-37 66.5t-13 86t13 86t37 66.5t58.5 42.5t77.5 15h333v-86h-60v-761h-91v761h-91v-761h-91v427z" />
    <glyph glyph-name="periodcentered" unicode="&#xb7;" horiz-adv-x="316" 
d="M158 227q-38 0 -56.5 17.5t-18.5 47.5v24q0 30 18.5 47.5t56.5 17.5t56.5 -17.5t18.5 -47.5v-24q0 -30 -18.5 -47.5t-56.5 -17.5z" />
    <glyph glyph-name="cedilla" unicode="&#xb8;" 
d="M283 -209q-75 0 -108 42l38 48q9 -11 23.5 -18t37.5 -7q22 0 31.5 7t9.5 24t-9.5 24t-31.5 7h-49l20 106h58l-17 -93h9q3 8 13 13.5t26 5.5q64 0 64 -70q0 -89 -115 -89z" />
    <glyph glyph-name="onesuperior" unicode="&#xb9;" horiz-adv-x="321" 
d="M51 329v68h86v224l-76 -43l-32 60l103 60h89v-301h76v-68h-246z" />
    <glyph glyph-name="ordmasculine" unicode="&#xba;" horiz-adv-x="383" 
d="M192 338q-36 0 -65 10t-49.5 32.5t-31.5 58t-11 85.5q0 100 42.5 143t114.5 43t114.5 -43t42.5 -143q0 -50 -11 -85.5t-31.5 -58t-49.5 -32.5t-65 -10zM192 404q35 0 51 19.5t16 54.5v92q0 35 -16 54.5t-51 19.5t-51 -19.5t-16 -54.5v-92q0 -35 16 -54.5t51 -19.5z" />
    <glyph glyph-name="guillemotright" unicode="&#xbb;" horiz-adv-x="494" 
d="M77 473l169 -144v-105l-169 -144l-36 77l106 113v13l-106 113zM286 473l169 -144v-105l-169 -144l-36 77l106 113v13l-106 113z" />
    <glyph glyph-name="onequarter" unicode="&#xbc;" horiz-adv-x="741" 
d="M52 329v68h86v224l-76 -43l-32 60l103 60h89v-301h76v-68h-246zM385 434l175 264h89l-176 -264h-88zM91 0l174 254h89l-174 -254h-89zM595 0v71h-156v69l132 229h104v-235h43v-63h-43v-71h-80zM595 281h-9l-82 -147h91v147z" />
    <glyph glyph-name="onehalf" unicode="&#xbd;" horiz-adv-x="740" 
d="M711 0h-258v75l103 90q17 15 28.5 27t18 22.5t9.5 20.5t3 21v8q0 20 -12.5 31t-33.5 11q-26 0 -38 -16t-18 -36l-69 26q30 95 133 95q126 0 126 -111q0 -20 -5 -37.5t-16 -34.5t-30 -35t-46 -39l-65 -50h170v-68zM52 329v68h86v224l-76 -43l-32 60l103 60h89v-301h76v-68
h-246zM385 434l175 264h89l-176 -264h-88zM91 0l174 254h89l-174 -254h-89z" />
    <glyph glyph-name="threequarters" unicode="&#xbe;" horiz-adv-x="740" 
d="M144 553q23 0 35 11t12 26v10q0 15 -12 26t-35 11q-38 0 -66 -42l-52 48q26 32 55 46.5t70 14.5q61 0 95 -24t34 -75q0 -35 -20.5 -56t-49.5 -24v-11q35 -3 55.5 -23.5t20.5 -58.5q0 -57 -36.5 -83t-100.5 -26q-86 0 -134 70l61 47q11 -20 27 -34.5t45 -14.5
q26 0 37.5 11t11.5 30v12q0 19 -11.5 30t-37.5 11h-37v68h33zM384 434l175 264h89l-176 -264h-88zM90 0l174 254h89l-174 -254h-89zM594 0v71h-156v69l132 229h104v-235h43v-63h-43v-71h-80zM594 281h-9l-82 -147h91v147z" />
    <glyph glyph-name="questiondown" unicode="&#xbf;" horiz-adv-x="439" 
d="M230 -188q-100 0 -152 50.5t-52 144.5q0 81 42 135.5t117 69.5v87h115v-158q-74 -3 -110 -30t-36 -87v-19q0 -43 21 -64.5t59 -21.5q41 0 64.5 26t31.5 69l101 -42q-20 -78 -71.5 -119t-129.5 -41zM242 380q-40 0 -58 17.5t-18 47.5v24q0 30 18 47.5t58 17.5t58 -17.5
t18 -47.5v-24q0 -30 -18 -47.5t-58 -17.5z" />
    <glyph glyph-name="Agrave" unicode="&#xc0;" horiz-adv-x="606" 
d="M463 0l-49 182h-225l-49 -182h-120l204 698h158l204 -698h-123zM330 474l-22 111h-14l-22 -111l-53 -191h165zM172 917l104 51l88 -189l-73 -35z" />
    <glyph glyph-name="Aacute" unicode="&#xc1;" horiz-adv-x="606" 
d="M463 0l-49 182h-225l-49 -182h-120l204 698h158l204 -698h-123zM330 474l-22 111h-14l-22 -111l-53 -191h165zM317 744l-73 35l88 189l104 -51z" />
    <glyph glyph-name="Acircumflex" unicode="&#xc2;" horiz-adv-x="606" 
d="M463 0l-49 182h-225l-49 -182h-120l204 698h158l204 -698h-123zM330 474l-22 111h-14l-22 -111l-53 -191h165zM356 949l121 -157l-61 -47l-112 118l-112 -118l-61 47l121 157h104z" />
    <glyph glyph-name="Atilde" unicode="&#xc3;" horiz-adv-x="606" 
d="M463 0l-49 182h-225l-49 -182h-120l204 698h158l204 -698h-123zM330 474l-22 111h-14l-22 -111l-53 -191h165zM375 770q-18 0 -33 4.5t-41 18.5t-41.5 19.5t-26.5 5.5q-17 0 -27.5 -6.5t-24.5 -20.5l-44 56q17 27 42 42.5t54 15.5q18 0 33 -4.5t41 -18.5t41.5 -19.5
t26.5 -5.5q17 0 27.5 6.5t24.5 20.5l44 -56q-17 -27 -42 -42.5t-54 -15.5z" />
    <glyph glyph-name="Adieresis" unicode="&#xc4;" horiz-adv-x="606" 
d="M463 0l-49 182h-225l-49 -182h-120l204 698h158l204 -698h-123zM330 474l-22 111h-14l-22 -111l-53 -191h165zM211 773q-37 0 -51.5 13.5t-14.5 39.5v25q0 26 14.5 39.5t51.5 13.5t51.5 -13.5t14.5 -39.5v-25q0 -26 -14.5 -39.5t-51.5 -13.5zM397 773q-37 0 -51.5 13.5
t-14.5 39.5v25q0 26 14.5 39.5t51.5 13.5t51.5 -13.5t14.5 -39.5v-25q0 -26 -14.5 -39.5t-51.5 -13.5z" />
    <glyph glyph-name="Aring" unicode="&#xc5;" horiz-adv-x="606" 
d="M463 0l-49 182h-225l-49 -182h-120l204 698h158l204 -698h-123zM330 474l-22 111h-14l-22 -111l-53 -191h165zM304 727q-62 0 -97.5 36.5t-35.5 98.5t35.5 98.5t97.5 36.5t97.5 -36.5t35.5 -98.5t-35.5 -98.5t-97.5 -36.5zM304 792q24 0 38 11.5t14 34.5v48
q0 23 -14 34.5t-38 11.5t-38 -11.5t-14 -34.5v-48q0 -23 14 -34.5t38 -11.5z" />
    <glyph glyph-name="AE" unicode="&#xc6;" horiz-adv-x="859" 
d="M388 180h-186l-76 -180h-126l304 698h503v-109h-294v-182h257v-106h-257v-192h294v-109h-419v180zM373 589l-129 -305h144v305h-15z" />
    <glyph glyph-name="Ccedilla" unicode="&#xc7;" horiz-adv-x="581" 
d="M319 602q-66 0 -102.5 -43t-36.5 -123v-174q0 -80 36.5 -123t102.5 -43q53 0 84.5 27t49.5 87l102 -60q-35 -77 -88 -118.5t-139 -43.5l-10 -57h9q3 8 13 13.5t26 5.5q64 0 64 -70q0 -89 -115 -89q-75 0 -108 42l38 48q10 -11 24 -18t37 -7q22 0 31.5 7t9.5 24t-9.5 24
t-31.5 7h-48l14 73q-52 7 -93.5 30.5t-71 66.5t-45 106.5t-15.5 150.5q0 97 19.5 166t55 113t85.5 65t112 21q46 0 82 -10t64 -29.5t49 -49.5t38 -70l-106 -56q-16 57 -45 82t-82 25z" />
    <glyph glyph-name="Egrave" unicode="&#xc8;" horiz-adv-x="544" 
d="M73 0v698h419v-109h-294v-182h257v-106h-257v-192h294v-109h-419zM150 917l104 51l88 -189l-73 -35z" />
    <glyph glyph-name="Eacute" unicode="&#xc9;" horiz-adv-x="544" 
d="M73 0v698h419v-109h-294v-182h257v-106h-257v-192h294v-109h-419zM295 744l-73 35l88 189l104 -51z" />
    <glyph glyph-name="Ecircumflex" unicode="&#xca;" horiz-adv-x="544" 
d="M73 0v698h419v-109h-294v-182h257v-106h-257v-192h294v-109h-419zM334 949l121 -157l-61 -47l-112 118l-112 -118l-61 47l121 157h104z" />
    <glyph glyph-name="Edieresis" unicode="&#xcb;" horiz-adv-x="544" 
d="M73 0v698h419v-109h-294v-182h257v-106h-257v-192h294v-109h-419zM189 773q-37 0 -51.5 13.5t-14.5 39.5v25q0 26 14.5 39.5t51.5 13.5t51.5 -13.5t14.5 -39.5v-25q0 -26 -14.5 -39.5t-51.5 -13.5zM375 773q-37 0 -51.5 13.5t-14.5 39.5v25q0 26 14.5 39.5t51.5 13.5
t51.5 -13.5t14.5 -39.5v-25q0 -26 -14.5 -39.5t-51.5 -13.5z" />
    <glyph glyph-name="Igrave" unicode="&#xcc;" horiz-adv-x="387" 
d="M48 0v99h83v500h-83v99h291v-99h-83v-500h83v-99h-291zM63 917l104 51l88 -189l-73 -35z" />
    <glyph glyph-name="Iacute" unicode="&#xcd;" horiz-adv-x="387" 
d="M48 0v99h83v500h-83v99h291v-99h-83v-500h83v-99h-291zM208 744l-73 35l88 189l104 -51z" />
    <glyph glyph-name="Icircumflex" unicode="&#xce;" horiz-adv-x="387" 
d="M48 0v99h83v500h-83v99h291v-99h-83v-500h83v-99h-291zM247 949l121 -157l-61 -47l-112 118l-112 -118l-61 47l121 157h104z" />
    <glyph glyph-name="Idieresis" unicode="&#xcf;" horiz-adv-x="387" 
d="M48 0v99h83v500h-83v99h291v-99h-83v-500h83v-99h-291zM102 773q-37 0 -51.5 13.5t-14.5 39.5v25q0 26 14.5 39.5t51.5 13.5t51.5 -13.5t14.5 -39.5v-25q0 -26 -14.5 -39.5t-51.5 -13.5zM288 773q-37 0 -51.5 13.5t-14.5 39.5v25q0 26 14.5 39.5t51.5 13.5t51.5 -13.5
t14.5 -39.5v-25q0 -26 -14.5 -39.5t-51.5 -13.5z" />
    <glyph glyph-name="Eth" unicode="&#xd0;" horiz-adv-x="626" 
d="M76 312h-65v95h65v291h238q63 0 112.5 -19.5t84 -62t52.5 -108.5t18 -159t-18 -159t-52.5 -108.5t-84 -62t-112.5 -19.5h-238v312zM314 110q64 0 99 39t35 118v164q0 79 -35 118t-99 39h-113v-181h110v-95h-110v-202h113z" />
    <glyph glyph-name="Ntilde" unicode="&#xd1;" horiz-adv-x="651" 
d="M246 397l-49 121h-14l8 -125v-393h-118v698h139l193 -397l49 -121h14l-8 125v393h118v-698h-139zM396 770q-18 0 -33 4.5t-41 18.5t-41.5 19.5t-26.5 5.5q-17 0 -27.5 -6.5t-24.5 -20.5l-44 56q17 27 42 42.5t54 15.5q18 0 33 -4.5t41 -18.5t41.5 -19.5t26.5 -5.5
q17 0 27.5 6.5t24.5 20.5l44 -56q-17 -27 -42 -42.5t-54 -15.5z" />
    <glyph glyph-name="Ograve" unicode="&#xd2;" horiz-adv-x="642" 
d="M321 -12q-63 0 -113.5 20.5t-86 64t-55 112t-19.5 164.5t19.5 164.5t55 112t86 64t113.5 20.5t113.5 -20.5t86 -64t55 -112t19.5 -164.5t-19.5 -164.5t-55 -112t-86 -64t-113.5 -20.5zM321 98q68 0 105 42.5t37 121.5v174q0 79 -37 121.5t-105 42.5t-105 -42.5
t-37 -121.5v-174q0 -79 37 -121.5t105 -42.5zM188 917l104 51l88 -189l-73 -35z" />
    <glyph glyph-name="Oacute" unicode="&#xd3;" horiz-adv-x="642" 
d="M321 -12q-63 0 -113.5 20.5t-86 64t-55 112t-19.5 164.5t19.5 164.5t55 112t86 64t113.5 20.5t113.5 -20.5t86 -64t55 -112t19.5 -164.5t-19.5 -164.5t-55 -112t-86 -64t-113.5 -20.5zM321 98q68 0 105 42.5t37 121.5v174q0 79 -37 121.5t-105 42.5t-105 -42.5
t-37 -121.5v-174q0 -79 37 -121.5t105 -42.5zM333 744l-73 35l88 189l104 -51z" />
    <glyph glyph-name="Ocircumflex" unicode="&#xd4;" horiz-adv-x="642" 
d="M321 -12q-63 0 -113.5 20.5t-86 64t-55 112t-19.5 164.5t19.5 164.5t55 112t86 64t113.5 20.5t113.5 -20.5t86 -64t55 -112t19.5 -164.5t-19.5 -164.5t-55 -112t-86 -64t-113.5 -20.5zM321 98q68 0 105 42.5t37 121.5v174q0 79 -37 121.5t-105 42.5t-105 -42.5
t-37 -121.5v-174q0 -79 37 -121.5t105 -42.5zM372 949l121 -157l-61 -47l-112 118l-112 -118l-61 47l121 157h104z" />
    <glyph glyph-name="Otilde" unicode="&#xd5;" horiz-adv-x="642" 
d="M321 -12q-63 0 -113.5 20.5t-86 64t-55 112t-19.5 164.5t19.5 164.5t55 112t86 64t113.5 20.5t113.5 -20.5t86 -64t55 -112t19.5 -164.5t-19.5 -164.5t-55 -112t-86 -64t-113.5 -20.5zM321 98q68 0 105 42.5t37 121.5v174q0 79 -37 121.5t-105 42.5t-105 -42.5
t-37 -121.5v-174q0 -79 37 -121.5t105 -42.5zM391 770q-18 0 -33 4.5t-41 18.5t-41.5 19.5t-26.5 5.5q-17 0 -27.5 -6.5t-24.5 -20.5l-44 56q17 27 42 42.5t54 15.5q18 0 33 -4.5t41 -18.5t41.5 -19.5t26.5 -5.5q17 0 27.5 6.5t24.5 20.5l44 -56q-17 -27 -42 -42.5
t-54 -15.5z" />
    <glyph glyph-name="Odieresis" unicode="&#xd6;" horiz-adv-x="642" 
d="M321 -12q-63 0 -113.5 20.5t-86 64t-55 112t-19.5 164.5t19.5 164.5t55 112t86 64t113.5 20.5t113.5 -20.5t86 -64t55 -112t19.5 -164.5t-19.5 -164.5t-55 -112t-86 -64t-113.5 -20.5zM321 98q68 0 105 42.5t37 121.5v174q0 79 -37 121.5t-105 42.5t-105 -42.5
t-37 -121.5v-174q0 -79 37 -121.5t105 -42.5zM227 773q-37 0 -51.5 13.5t-14.5 39.5v25q0 26 14.5 39.5t51.5 13.5t51.5 -13.5t14.5 -39.5v-25q0 -26 -14.5 -39.5t-51.5 -13.5zM413 773q-37 0 -51.5 13.5t-14.5 39.5v25q0 26 14.5 39.5t51.5 13.5t51.5 -13.5t14.5 -39.5v-25
q0 -26 -14.5 -39.5t-51.5 -13.5z" />
    <glyph glyph-name="multiply" unicode="&#xd7;" horiz-adv-x="539" 
d="M270 240l-138 -138l-67 67l138 138l-138 137l67 68l138 -137l137 137l68 -68l-137 -137l137 -138l-68 -67z" />
    <glyph glyph-name="Oslash" unicode="&#xd8;" horiz-adv-x="641" 
d="M321 -12q-83 0 -143 36l-45 -74l-78 48l54 90q-62 88 -62 261q0 96 19.5 164.5t55 112t86 64t113.5 20.5q83 0 143 -36l45 74l78 -48l-54 -90q62 -88 62 -261q0 -96 -19.5 -164.5t-55 -112t-86 -64t-113.5 -20.5zM183 186l132 230l98 162q-35 29 -93 29q-71 0 -109 -43
t-38 -125v-133l-4 -120h14zM229 120q35 -29 93 -29q71 0 109 43t38 125v133l4 120h-14l-132 -230z" />
    <glyph glyph-name="Ugrave" unicode="&#xd9;" horiz-adv-x="624" 
d="M193 698v-453q0 -77 25.5 -113t93.5 -36t93.5 36t25.5 113v453h125v-435q0 -72 -12.5 -124t-41.5 -85.5t-75.5 -49.5t-114.5 -16t-114.5 16t-75.5 49.5t-41.5 85.5t-12.5 124v435h125zM180 917l104 51l88 -189l-73 -35z" />
    <glyph glyph-name="Uacute" unicode="&#xda;" horiz-adv-x="624" 
d="M193 698v-453q0 -77 25.5 -113t93.5 -36t93.5 36t25.5 113v453h125v-435q0 -72 -12.5 -124t-41.5 -85.5t-75.5 -49.5t-114.5 -16t-114.5 16t-75.5 49.5t-41.5 85.5t-12.5 124v435h125zM325 744l-73 35l88 189l104 -51z" />
    <glyph glyph-name="Ucircumflex" unicode="&#xdb;" horiz-adv-x="624" 
d="M193 698v-453q0 -77 25.5 -113t93.5 -36t93.5 36t25.5 113v453h125v-435q0 -72 -12.5 -124t-41.5 -85.5t-75.5 -49.5t-114.5 -16t-114.5 16t-75.5 49.5t-41.5 85.5t-12.5 124v435h125zM364 949l121 -157l-61 -47l-112 118l-112 -118l-61 47l121 157h104z" />
    <glyph glyph-name="Udieresis" unicode="&#xdc;" horiz-adv-x="624" 
d="M193 698v-453q0 -77 25.5 -113t93.5 -36t93.5 36t25.5 113v453h125v-435q0 -72 -12.5 -124t-41.5 -85.5t-75.5 -49.5t-114.5 -16t-114.5 16t-75.5 49.5t-41.5 85.5t-12.5 124v435h125zM219 773q-37 0 -51.5 13.5t-14.5 39.5v25q0 26 14.5 39.5t51.5 13.5t51.5 -13.5
t14.5 -39.5v-25q0 -26 -14.5 -39.5t-51.5 -13.5zM405 773q-37 0 -51.5 13.5t-14.5 39.5v25q0 26 14.5 39.5t51.5 13.5t51.5 -13.5t14.5 -39.5v-25q0 -26 -14.5 -39.5t-51.5 -13.5z" />
    <glyph glyph-name="Yacute" unicode="&#xdd;" horiz-adv-x="566" 
d="M221 0v267l-214 431h137l135 -300h14l132 300h134l-213 -431v-267h-125zM297 744l-73 35l88 189l104 -51z" />
    <glyph glyph-name="Thorn" unicode="&#xde;" horiz-adv-x="582" 
d="M73 0v698h125v-128h164q92 0 139.5 -57t47.5 -157t-47.5 -157t-139.5 -57h-164v-142h-125zM198 251h151q33 0 51 17.5t18 56.5v62q0 39 -18 56.5t-51 17.5h-151v-210z" />
    <glyph glyph-name="germandbls" unicode="&#xdf;" horiz-adv-x="613" 
d="M594 163q0 -84 -45.5 -129.5t-127.5 -45.5q-112 0 -166 78l68 68q41 -54 98 -54q61 0 61 67q0 26 -14.5 42.5t-49.5 29.5l-28 11q-54 20 -80 53.5t-26 92.5q0 63 34 102t100 45v13q0 67 -24 95.5t-80 28.5t-80 -28.5t-24 -95.5v-536h-121v426h-69v97h69v17
q0 105 57.5 158.5t163.5 53.5t163.5 -53.5t57.5 -158.5v-95h-62q-40 0 -57 -14t-17 -46q0 -26 12 -39t47 -27l27 -11q60 -23 86.5 -56t26.5 -89z" />
    <glyph glyph-name="agrave" unicode="&#xe0;" horiz-adv-x="507" 
d="M406 0q-81 0 -85 89h-12q-10 -48 -45 -74.5t-87 -26.5q-72 0 -108 40t-36 112q0 82 51 122t147 40h81v45q0 46 -19.5 68t-64.5 22q-37 0 -62 -17.5t-44 -49.5l-71 64q29 45 73.5 72.5t113.5 27.5q195 0 195 -184v-253h46v-97h-73zM223 77q37 0 63 21.5t26 59.5v69h-73
q-84 0 -84 -65v-22q0 -33 18 -48t50 -15zM108 754l104 51l88 -189l-73 -35z" />
    <glyph glyph-name="aacute" unicode="&#xe1;" horiz-adv-x="507" 
d="M406 0q-81 0 -85 89h-12q-10 -48 -45 -74.5t-87 -26.5q-72 0 -108 40t-36 112q0 82 51 122t147 40h81v45q0 46 -19.5 68t-64.5 22q-37 0 -62 -17.5t-44 -49.5l-71 64q29 45 73.5 72.5t113.5 27.5q195 0 195 -184v-253h46v-97h-73zM223 77q37 0 63 21.5t26 59.5v69h-73
q-84 0 -84 -65v-22q0 -33 18 -48t50 -15zM253 581l-73 35l88 189l104 -51z" />
    <glyph glyph-name="acircumflex" unicode="&#xe2;" horiz-adv-x="507" 
d="M406 0q-81 0 -85 89h-12q-10 -48 -45 -74.5t-87 -26.5q-72 0 -108 40t-36 112q0 82 51 122t147 40h81v45q0 46 -19.5 68t-64.5 22q-37 0 -62 -17.5t-44 -49.5l-71 64q29 45 73.5 72.5t113.5 27.5q195 0 195 -184v-253h46v-97h-73zM223 77q37 0 63 21.5t26 59.5v69h-73
q-84 0 -84 -65v-22q0 -33 18 -48t50 -15zM292 787l121 -157l-61 -47l-112 118l-112 -118l-61 47l121 157h104z" />
    <glyph glyph-name="atilde" unicode="&#xe3;" horiz-adv-x="507" 
d="M406 0q-81 0 -85 89h-12q-10 -48 -45 -74.5t-87 -26.5q-72 0 -108 40t-36 112q0 82 51 122t147 40h81v45q0 46 -19.5 68t-64.5 22q-37 0 -62 -17.5t-44 -49.5l-71 64q29 45 73.5 72.5t113.5 27.5q195 0 195 -184v-253h46v-97h-73zM223 77q37 0 63 21.5t26 59.5v69h-73
q-84 0 -84 -65v-22q0 -33 18 -48t50 -15zM311 606q-18 0 -33 4.5t-41 18.5t-41.5 19.5t-26.5 5.5q-17 0 -27.5 -6.5t-24.5 -20.5l-44 56q17 27 42 42.5t54 15.5q18 0 33 -4.5t41 -18.5t41.5 -19.5t26.5 -5.5q17 0 27.5 6.5t24.5 20.5l44 -56q-17 -27 -42 -42.5t-54 -15.5z
" />
    <glyph glyph-name="adieresis" unicode="&#xe4;" horiz-adv-x="507" 
d="M406 0q-81 0 -85 89h-12q-10 -48 -45 -74.5t-87 -26.5q-72 0 -108 40t-36 112q0 82 51 122t147 40h81v45q0 46 -19.5 68t-64.5 22q-37 0 -62 -17.5t-44 -49.5l-71 64q29 45 73.5 72.5t113.5 27.5q195 0 195 -184v-253h46v-97h-73zM223 77q37 0 63 21.5t26 59.5v69h-73
q-84 0 -84 -65v-22q0 -33 18 -48t50 -15zM147 607q-37 0 -51.5 13.5t-14.5 39.5v25q0 26 14.5 39.5t51.5 13.5t51.5 -13.5t14.5 -39.5v-25q0 -26 -14.5 -39.5t-51.5 -13.5zM333 607q-37 0 -51.5 13.5t-14.5 39.5v25q0 26 14.5 39.5t51.5 13.5t51.5 -13.5t14.5 -39.5v-25
q0 -26 -14.5 -39.5t-51.5 -13.5z" />
    <glyph glyph-name="aring" unicode="&#xe5;" horiz-adv-x="507" 
d="M406 0q-81 0 -85 89h-12q-10 -48 -45 -74.5t-87 -26.5q-72 0 -108 40t-36 112q0 82 51 122t147 40h81v45q0 46 -19.5 68t-64.5 22q-37 0 -62 -17.5t-44 -49.5l-71 64q29 45 73.5 72.5t113.5 27.5q195 0 195 -184v-253h46v-97h-73zM223 77q37 0 63 21.5t26 59.5v69h-73
q-84 0 -84 -65v-22q0 -33 18 -48t50 -15zM240 563q-62 0 -97.5 36.5t-35.5 98.5t35.5 98.5t97.5 36.5t97.5 -36.5t35.5 -98.5t-35.5 -98.5t-97.5 -36.5zM240 628q24 0 38 11.5t14 34.5v48q0 23 -14 34.5t-38 11.5t-38 -11.5t-14 -34.5v-48q0 -23 14 -34.5t38 -11.5z" />
    <glyph glyph-name="ae" unicode="&#xe6;" horiz-adv-x="782" 
d="M239 230q-43 0 -63.5 -18t-20.5 -50v-22q0 -33 18 -48t50 -15q37 0 63 21.5t26 59.5v72h-73zM621 304v29q0 108 -91 108t-91 -108v-29h182zM548 86q43 0 72.5 18.5t50.5 53.5l66 -69q-29 -46 -77.5 -73.5t-115.5 -27.5q-63 0 -109.5 30t-57.5 77h-15q-12 -48 -59 -77.5
t-119 -29.5q-77 0 -114 40t-37 112q0 81 51 122.5t147 41.5h81v43q0 45 -19.5 67.5t-64.5 22.5q-37 0 -62 -17.5t-44 -49.5l-71 64q29 45 74 72.5t111 27.5q54 0 91 -29t45 -78h12q11 54 54 80.5t101 26.5q99 0 154 -66.5t55 -207.5v-30h-309v-32q0 -53 29 -82.5t80 -29.5z
" />
    <glyph glyph-name="ccedilla" unicode="&#xe7;" horiz-adv-x="464" 
d="M251 534q77 0 122.5 -35t65.5 -96l-99 -44q-8 38 -28.5 57.5t-60.5 19.5q-90 0 -90 -108v-134q0 -108 90 -108q42 0 64 20t33 62l94 -45q-42 -129 -179 -135l-10 -57h9q4 8 14 13.5t25 5.5q64 0 64 -70q0 -89 -115 -89q-75 0 -108 42l39 48q9 -11 23 -18t37 -7
q22 0 31.5 7t9.5 24t-9.5 24t-31.5 7h-48l14 73q-85 14 -129 79t-44 191q0 141 55.5 207t161.5 66z" />
    <glyph glyph-name="egrave" unicode="&#xe8;" horiz-adv-x="505" 
d="M263 -12q-51 0 -93.5 16.5t-72.5 50t-46.5 85t-16.5 121.5q0 141 56.5 207t161.5 66t161.5 -66t56.5 -207v-29h-309v-34q0 -52 29 -82t80 -30q43 0 72.5 18.5t50.5 53.5l66 -69q-29 -46 -78 -73.5t-118 -27.5zM252 441q-91 0 -91 -108v-26h182v26q0 108 -91 108zM122 754
l104 51l88 -189l-73 -35z" />
    <glyph glyph-name="eacute" unicode="&#xe9;" horiz-adv-x="505" 
d="M263 -12q-51 0 -93.5 16.5t-72.5 50t-46.5 85t-16.5 121.5q0 141 56.5 207t161.5 66t161.5 -66t56.5 -207v-29h-309v-34q0 -52 29 -82t80 -30q43 0 72.5 18.5t50.5 53.5l66 -69q-29 -46 -78 -73.5t-118 -27.5zM252 441q-91 0 -91 -108v-26h182v26q0 108 -91 108zM267 581
l-73 35l88 189l104 -51z" />
    <glyph glyph-name="ecircumflex" unicode="&#xea;" horiz-adv-x="505" 
d="M263 -12q-51 0 -93.5 16.5t-72.5 50t-46.5 85t-16.5 121.5q0 141 56.5 207t161.5 66t161.5 -66t56.5 -207v-29h-309v-34q0 -52 29 -82t80 -30q43 0 72.5 18.5t50.5 53.5l66 -69q-29 -46 -78 -73.5t-118 -27.5zM252 441q-91 0 -91 -108v-26h182v26q0 108 -91 108zM306 787
l121 -157l-61 -47l-112 118l-112 -118l-61 47l121 157h104z" />
    <glyph glyph-name="edieresis" unicode="&#xeb;" horiz-adv-x="505" 
d="M263 -12q-51 0 -93.5 16.5t-72.5 50t-46.5 85t-16.5 121.5q0 141 56.5 207t161.5 66t161.5 -66t56.5 -207v-29h-309v-34q0 -52 29 -82t80 -30q43 0 72.5 18.5t50.5 53.5l66 -69q-29 -46 -78 -73.5t-118 -27.5zM252 441q-91 0 -91 -108v-26h182v26q0 108 -91 108zM161 607
q-37 0 -51.5 13.5t-14.5 39.5v25q0 26 14.5 39.5t51.5 13.5t51.5 -13.5t14.5 -39.5v-25q0 -26 -14.5 -39.5t-51.5 -13.5zM347 607q-37 0 -51.5 13.5t-14.5 39.5v25q0 26 14.5 39.5t51.5 13.5t51.5 -13.5t14.5 -39.5v-25q0 -26 -14.5 -39.5t-51.5 -13.5z" />
    <glyph glyph-name="igrave" unicode="&#xec;" horiz-adv-x="254" 
d="M67 0v522h121v-522h-121zM-4 754l104 51l88 -189l-73 -35z" />
    <glyph glyph-name="iacute" unicode="&#xed;" horiz-adv-x="254" 
d="M67 0v522h121v-522h-121zM141 581l-73 35l88 189l104 -51z" />
    <glyph glyph-name="icircumflex" unicode="&#xee;" horiz-adv-x="254" 
d="M67 0v522h121v-522h-121zM180 787l106 -157l-61 -47l-97 118l-97 -118l-61 47l106 157h104z" />
    <glyph glyph-name="idieresis" unicode="&#xef;" horiz-adv-x="254" 
d="M67 0v522h121v-522h-121zM41 607q-37 0 -51.5 13.5t-14.5 39.5v25q0 26 14.5 39.5t51.5 13.5t51.5 -13.5t14.5 -39.5v-25q0 -26 -14.5 -39.5t-51.5 -13.5zM215 607q-37 0 -51.5 13.5t-14.5 39.5v25q0 26 14.5 39.5t51.5 13.5t51.5 -13.5t14.5 -39.5v-25
q0 -26 -14.5 -39.5t-51.5 -13.5z" />
    <glyph glyph-name="eth" unicode="&#xf0;" horiz-adv-x="533" 
d="M421 701l-68 -45q63 -68 100 -165t37 -234t-58 -203t-169 -66q-112 0 -169 66t-57 196q0 125 48.5 188t132.5 63q51 0 81.5 -24t46.5 -69h14q-24 105 -97 191l-90 -57l-33 51l80 51q-56 53 -136 96h168q14 -9 27.5 -19t27.5 -21l81 52zM263 88q49 0 74 28t25 91v78
q0 63 -25 91t-74 28t-74 -28t-25 -91v-78q0 -63 25 -91t74 -28z" />
    <glyph glyph-name="ntilde" unicode="&#xf1;" horiz-adv-x="532" 
d="M66 0v522h121v-87h14q31 99 125 99q70 0 108 -47.5t38 -135.5v-351h-121v330q0 102 -76 102q-37 0 -62.5 -21.5t-25.5 -60.5v-350h-121zM341 606q-18 0 -33 4.5t-41 18.5t-41.5 19.5t-26.5 5.5q-17 0 -27.5 -6.5t-24.5 -20.5l-44 56q17 27 42 42.5t54 15.5q18 0 33 -4.5
t41 -18.5t41.5 -19.5t26.5 -5.5q17 0 27.5 6.5t24.5 20.5l44 -56q-17 -27 -42 -42.5t-54 -15.5z" />
    <glyph glyph-name="ograve" unicode="&#xf2;" horiz-adv-x="506" 
d="M253 -12q-104 0 -161.5 66t-57.5 207t57.5 207t161.5 66t161.5 -66t57.5 -207t-57.5 -207t-161.5 -66zM253 86q92 0 92 108v134q0 108 -92 108t-92 -108v-134q0 -108 92 -108zM122 754l104 51l88 -189l-73 -35z" />
    <glyph glyph-name="oacute" unicode="&#xf3;" horiz-adv-x="506" 
d="M253 -12q-104 0 -161.5 66t-57.5 207t57.5 207t161.5 66t161.5 -66t57.5 -207t-57.5 -207t-161.5 -66zM253 86q92 0 92 108v134q0 108 -92 108t-92 -108v-134q0 -108 92 -108zM267 581l-73 35l88 189l104 -51z" />
    <glyph glyph-name="ocircumflex" unicode="&#xf4;" horiz-adv-x="506" 
d="M253 -12q-104 0 -161.5 66t-57.5 207t57.5 207t161.5 66t161.5 -66t57.5 -207t-57.5 -207t-161.5 -66zM253 86q92 0 92 108v134q0 108 -92 108t-92 -108v-134q0 -108 92 -108zM306 787l121 -157l-61 -47l-112 118l-112 -118l-61 47l121 157h104z" />
    <glyph glyph-name="otilde" unicode="&#xf5;" horiz-adv-x="506" 
d="M253 -12q-104 0 -161.5 66t-57.5 207t57.5 207t161.5 66t161.5 -66t57.5 -207t-57.5 -207t-161.5 -66zM253 86q92 0 92 108v134q0 108 -92 108t-92 -108v-134q0 -108 92 -108zM325 606q-18 0 -33 4.5t-41 18.5t-41.5 19.5t-26.5 5.5q-17 0 -27.5 -6.5t-24.5 -20.5l-44 56
q17 27 42 42.5t54 15.5q18 0 33 -4.5t41 -18.5t41.5 -19.5t26.5 -5.5q17 0 27.5 6.5t24.5 20.5l44 -56q-17 -27 -42 -42.5t-54 -15.5z" />
    <glyph glyph-name="odieresis" unicode="&#xf6;" horiz-adv-x="506" 
d="M253 -12q-104 0 -161.5 66t-57.5 207t57.5 207t161.5 66t161.5 -66t57.5 -207t-57.5 -207t-161.5 -66zM253 86q92 0 92 108v134q0 108 -92 108t-92 -108v-134q0 -108 92 -108zM161 607q-37 0 -51.5 13.5t-14.5 39.5v25q0 26 14.5 39.5t51.5 13.5t51.5 -13.5t14.5 -39.5
v-25q0 -26 -14.5 -39.5t-51.5 -13.5zM347 607q-37 0 -51.5 13.5t-14.5 39.5v25q0 26 14.5 39.5t51.5 13.5t51.5 -13.5t14.5 -39.5v-25q0 -26 -14.5 -39.5t-51.5 -13.5z" />
    <glyph glyph-name="divide" unicode="&#xf7;" 
d="M56 259v96h428v-96h-428zM270 51q-40 0 -56 15.5t-16 41.5v24q0 26 16 41.5t56 15.5t56 -15.5t16 -41.5v-24q0 -26 -16 -41.5t-56 -15.5zM270 425q-40 0 -56 15.5t-16 41.5v24q0 26 16 41.5t56 15.5t56 -15.5t16 -41.5v-24q0 -26 -16 -41.5t-56 -15.5z" />
    <glyph glyph-name="oslash" unicode="&#xf8;" horiz-adv-x="512" 
d="M254 -12q-76 0 -125 34l-51 -66l-63 48l57 77q-18 33 -28 77.5t-10 102.5q0 141 57.5 207.5t161.5 66.5q76 0 125 -34l51 66l63 -48l-57 -77q18 -33 28 -77.5t10 -103.5q0 -140 -57.5 -206.5t-161.5 -66.5zM157 175l77 118l89 124q-12 11 -29.5 18t-40.5 7
q-96 0 -96 -109v-55l-11 -103h11zM184 106q12 -11 29.5 -18t40.5 -7q96 0 96 109v54l11 104h-11l-77 -118z" />
    <glyph glyph-name="ugrave" unicode="&#xf9;" horiz-adv-x="533" 
d="M346 88h-14q-30 -100 -127 -100q-70 0 -107.5 47.5t-37.5 136.5v350h121v-330q0 -103 76 -103q37 0 63 22t26 61v350h121v-522h-121v88zM132 754l104 51l88 -189l-73 -35z" />
    <glyph glyph-name="uacute" unicode="&#xfa;" horiz-adv-x="533" 
d="M346 88h-14q-30 -100 -127 -100q-70 0 -107.5 47.5t-37.5 136.5v350h121v-330q0 -103 76 -103q37 0 63 22t26 61v350h121v-522h-121v88zM277 581l-73 35l88 189l104 -51z" />
    <glyph glyph-name="ucircumflex" unicode="&#xfb;" horiz-adv-x="533" 
d="M346 88h-14q-30 -100 -127 -100q-70 0 -107.5 47.5t-37.5 136.5v350h121v-330q0 -103 76 -103q37 0 63 22t26 61v350h121v-522h-121v88zM316 787l121 -157l-61 -47l-112 118l-112 -118l-61 47l121 157h104z" />
    <glyph glyph-name="udieresis" unicode="&#xfc;" horiz-adv-x="533" 
d="M346 88h-14q-30 -100 -127 -100q-70 0 -107.5 47.5t-37.5 136.5v350h121v-330q0 -103 76 -103q37 0 63 22t26 61v350h121v-522h-121v88zM171 607q-37 0 -51.5 13.5t-14.5 39.5v25q0 26 14.5 39.5t51.5 13.5t51.5 -13.5t14.5 -39.5v-25q0 -26 -14.5 -39.5t-51.5 -13.5z
M357 607q-37 0 -51.5 13.5t-14.5 39.5v25q0 26 14.5 39.5t51.5 13.5t51.5 -13.5t14.5 -39.5v-25q0 -26 -14.5 -39.5t-51.5 -13.5z" />
    <glyph glyph-name="yacute" unicode="&#xfd;" horiz-adv-x="483" 
d="M353 522h121l-199 -631q-17 -53 -48 -72t-87 -19h-82v97h103l21 74l-174 551h123l78 -282l28 -137h12l28 138zM256 581l-73 35l88 189l104 -51z" />
    <glyph glyph-name="thorn" unicode="&#xfe;" horiz-adv-x="544" 
d="M66 740h121v-304h14q11 45 44.5 71.5t78.5 26.5q93 0 136.5 -69.5t43.5 -203.5t-43.5 -203.5t-136.5 -69.5q-45 0 -78.5 27t-44.5 71h-14v-286h-121v940zM278 90q47 0 73 29t26 82v122q0 53 -26 82t-73 29q-41 0 -66 -20.5t-25 -57.5v-188q0 -37 25 -57.5t66 -20.5z" />
    <glyph glyph-name="ydieresis" unicode="&#xff;" horiz-adv-x="483" 
d="M353 522h121l-199 -631q-17 -53 -48 -72t-87 -19h-82v97h103l21 74l-174 551h123l78 -282l28 -137h12l28 138zM150 607q-37 0 -51.5 13.5t-14.5 39.5v25q0 26 14.5 39.5t51.5 13.5t51.5 -13.5t14.5 -39.5v-25q0 -26 -14.5 -39.5t-51.5 -13.5zM336 607q-37 0 -51.5 13.5
t-14.5 39.5v25q0 26 14.5 39.5t51.5 13.5t51.5 -13.5t14.5 -39.5v-25q0 -26 -14.5 -39.5t-51.5 -13.5z" />
    <glyph glyph-name="Amacron" unicode="&#x100;" horiz-adv-x="606" 
d="M463 0l-49 182h-225l-49 -182h-120l204 698h158l204 -698h-123zM330 474l-22 111h-14l-22 -111l-53 -191h165zM169 883h270v-91h-270v91z" />
    <glyph glyph-name="amacron" unicode="&#x101;" horiz-adv-x="507" 
d="M406 0q-81 0 -85 89h-12q-10 -48 -45 -74.5t-87 -26.5q-72 0 -108 40t-36 112q0 82 51 122t147 40h81v45q0 46 -19.5 68t-64.5 22q-37 0 -62 -17.5t-44 -49.5l-71 64q29 45 73.5 72.5t113.5 27.5q195 0 195 -184v-253h46v-97h-73zM223 77q37 0 63 21.5t26 59.5v69h-73
q-84 0 -84 -65v-22q0 -33 18 -48t50 -15zM105 720h270v-91h-270v91z" />
    <glyph glyph-name="Abreve" unicode="&#x102;" horiz-adv-x="606" 
d="M463 0l-49 182h-225l-49 -182h-120l204 698h158l204 -698h-123zM330 474l-22 111h-14l-22 -111l-53 -191h165zM304 748q-31 0 -55 7.5t-43.5 25.5t-36 48.5t-32.5 76.5l66 35l20 -40q9 -20 18 -33t18.5 -20.5t20.5 -10.5t24 -3q26 0 44.5 14t37.5 53l20 40l65 -35
q-16 -46 -32.5 -76.5t-36.5 -48.5t-44 -25.5t-54 -7.5z" />
    <glyph glyph-name="abreve" unicode="&#x103;" horiz-adv-x="507" 
d="M406 0q-81 0 -85 89h-12q-10 -48 -45 -74.5t-87 -26.5q-72 0 -108 40t-36 112q0 82 51 122t147 40h81v45q0 46 -19.5 68t-64.5 22q-37 0 -62 -17.5t-44 -49.5l-71 64q29 45 73.5 72.5t113.5 27.5q195 0 195 -184v-253h46v-97h-73zM223 77q37 0 63 21.5t26 59.5v69h-73
q-84 0 -84 -65v-22q0 -33 18 -48t50 -15zM240 584q-31 0 -55 7.5t-43.5 25.5t-36 48.5t-32.5 76.5l66 35l20 -40q9 -20 18 -33t18.5 -20.5t20.5 -10.5t24 -3q26 0 44.5 14t37.5 53l20 40l65 -35q-16 -46 -32.5 -76.5t-36.5 -48.5t-44 -25.5t-54 -7.5z" />
    <glyph glyph-name="Aogonek" unicode="&#x104;" horiz-adv-x="606" 
d="M610 -164q-17 -20 -44 -33.5t-59 -13.5q-51 0 -79 20.5t-28 58.5t32.5 68.5t95.5 55.5l-2 8h-63l-49 180h-225l-49 -180h-120l204 698h158l204 -698q-58 -36 -79.5 -61t-21.5 -51q0 -14 8.5 -23.5t26.5 -9.5q17 0 28.5 7t19.5 18zM330 474l-22 111h-14l-22 -111l-53 -190
h165z" />
    <glyph glyph-name="aogonek" unicode="&#x105;" horiz-adv-x="506" 
d="M502 -164q-16 -20 -43 -33.5t-59 -13.5q-51 0 -79 20t-28 59q0 76 125 124l-2 8q-94 0 -94 86v3h-13q-10 -48 -45 -74.5t-87 -26.5q-72 0 -108 40t-36 112q0 82 51 122t147 40h81v45q0 46 -19.5 68t-64.5 22q-37 0 -62 -17.5t-44 -49.5l-71 64q29 45 73.5 72.5
t113.5 27.5q195 0 195 -184v-253h46v-97q-58 -35 -79.5 -60.5t-21.5 -51.5q0 -15 8.5 -24t25.5 -9t28.5 7t19.5 18zM223 77q37 0 63 21.5t26 59.5v69h-73q-84 0 -84 -65v-22q0 -33 18 -48t50 -15z" />
    <glyph glyph-name="Cacute" unicode="&#x106;" horiz-adv-x="581" 
d="M319 -12q-62 0 -112 19.5t-85.5 62.5t-55 111t-19.5 164q0 97 19.5 166t55 113t85.5 65t112 21q46 0 82 -10t64 -29.5t49 -49.5t38 -70l-106 -56q-16 57 -45 82t-82 25q-66 0 -102.5 -43t-36.5 -123v-174q0 -80 36.5 -123t102.5 -43q53 0 84.5 27t49.5 87l102 -60
q-17 -39 -39 -69t-50.5 -50.5t-64.5 -31.5t-82 -11zM332 744l-73 35l88 189l104 -51z" />
    <glyph glyph-name="cacute" unicode="&#x107;" horiz-adv-x="464" 
d="M251 -12q-106 0 -161.5 66t-55.5 207t55.5 207t161.5 66q77 0 122.5 -35t65.5 -96l-99 -44q-8 38 -28.5 57.5t-60.5 19.5q-90 0 -90 -108v-134q0 -108 90 -108q42 0 64 20t33 62l94 -45q-46 -135 -191 -135zM261 581l-73 35l88 189l104 -51z" />
    <glyph glyph-name="Ccircumflex" unicode="&#x108;" horiz-adv-x="581" 
d="M319 -12q-62 0 -112 19.5t-85.5 62.5t-55 111t-19.5 164q0 97 19.5 166t55 113t85.5 65t112 21q46 0 82 -10t64 -29.5t49 -49.5t38 -70l-106 -56q-16 57 -45 82t-82 25q-66 0 -102.5 -43t-36.5 -123v-174q0 -80 36.5 -123t102.5 -43q53 0 84.5 27t49.5 87l102 -60
q-17 -39 -39 -69t-50.5 -50.5t-64.5 -31.5t-82 -11zM371 949l121 -157l-61 -47l-112 118l-112 -118l-61 47l121 157h104z" />
    <glyph glyph-name="ccircumflex" unicode="&#x109;" horiz-adv-x="464" 
d="M251 -12q-106 0 -161.5 66t-55.5 207t55.5 207t161.5 66q77 0 122.5 -35t65.5 -96l-99 -44q-8 38 -28.5 57.5t-60.5 19.5q-90 0 -90 -108v-134q0 -108 90 -108q42 0 64 20t33 62l94 -45q-46 -135 -191 -135zM300 787l121 -157l-61 -47l-112 118l-112 -118l-61 47l121 157
h104z" />
    <glyph glyph-name="Cdotaccent" unicode="&#x10a;" horiz-adv-x="581" 
d="M319 -12q-62 0 -112 19.5t-85.5 62.5t-55 111t-19.5 164q0 97 19.5 166t55 113t85.5 65t112 21q46 0 82 -10t64 -29.5t49 -49.5t38 -70l-106 -56q-16 57 -45 82t-82 25q-66 0 -102.5 -43t-36.5 -123v-174q0 -80 36.5 -123t102.5 -43q53 0 84.5 27t49.5 87l102 -60
q-17 -39 -39 -69t-50.5 -50.5t-64.5 -31.5t-82 -11zM319 773q-37 0 -52.5 14.5t-15.5 39.5v23q0 25 15.5 39.5t52.5 14.5t52.5 -14.5t15.5 -39.5v-23q0 -25 -15.5 -39.5t-52.5 -14.5z" />
    <glyph glyph-name="cdotaccent" unicode="&#x10b;" horiz-adv-x="464" 
d="M251 -12q-106 0 -161.5 66t-55.5 207t55.5 207t161.5 66q77 0 122.5 -35t65.5 -96l-99 -44q-8 38 -28.5 57.5t-60.5 19.5q-90 0 -90 -108v-134q0 -108 90 -108q42 0 64 20t33 62l94 -45q-46 -135 -191 -135zM248 607q-37 0 -52.5 14.5t-15.5 39.5v23q0 25 15.5 39.5
t52.5 14.5t52.5 -14.5t15.5 -39.5v-23q0 -25 -15.5 -39.5t-52.5 -14.5z" />
    <glyph glyph-name="Ccaron" unicode="&#x10c;" horiz-adv-x="581" 
d="M319 -12q-62 0 -112 19.5t-85.5 62.5t-55 111t-19.5 164q0 97 19.5 166t55 113t85.5 65t112 21q46 0 82 -10t64 -29.5t49 -49.5t38 -70l-106 -56q-16 57 -45 82t-82 25q-66 0 -102.5 -43t-36.5 -123v-174q0 -80 36.5 -123t102.5 -43q53 0 84.5 27t49.5 87l102 -60
q-17 -39 -39 -69t-50.5 -50.5t-64.5 -31.5t-82 -11zM267 754l-121 157l61 47l112 -118l112 118l61 -47l-121 -157h-104z" />
    <glyph glyph-name="ccaron" unicode="&#x10d;" horiz-adv-x="464" 
d="M251 -12q-106 0 -161.5 66t-55.5 207t55.5 207t161.5 66q77 0 122.5 -35t65.5 -96l-99 -44q-8 38 -28.5 57.5t-60.5 19.5q-90 0 -90 -108v-134q0 -108 90 -108q42 0 64 20t33 62l94 -45q-46 -135 -191 -135zM196 585l-121 157l61 47l112 -118l112 118l61 -47l-121 -157
h-104z" />
    <glyph glyph-name="Dcaron" unicode="&#x10e;" horiz-adv-x="625" 
d="M73 698h238q63 0 112.5 -19.5t84 -62t52.5 -108.5t18 -159t-18 -159t-52.5 -108.5t-84 -62t-112.5 -19.5h-238v698zM311 109q64 0 99 39.5t35 118.5v164q0 79 -35 118.5t-99 39.5h-113v-480h113zM244 754l-121 157l61 47l112 -118l112 118l61 -47l-121 -157h-104z" />
    <glyph glyph-name="dcaron" unicode="&#x10f;" horiz-adv-x="544" 
d="M357 86h-14q-11 -44 -44.5 -71t-78.5 -27q-92 0 -136 69.5t-44 203.5t44 203.5t136 69.5q45 0 78.5 -27t44.5 -71h14v304h121v-740h-121v86zM266 88q41 0 66 20.5t25 57.5v190q0 37 -25 57.5t-66 20.5q-47 0 -73 -29t-26 -82v-124q0 -53 26 -82t73 -29zM601 534h-72
l8 206h122z" />
    <glyph glyph-name="Dcroat" unicode="&#x110;" horiz-adv-x="626" 
d="M76 312h-65v95h65v291h238q63 0 112.5 -19.5t84 -62t52.5 -108.5t18 -159t-18 -159t-52.5 -108.5t-84 -62t-112.5 -19.5h-238v312zM314 110q64 0 99 39t35 118v164q0 79 -35 118t-99 39h-113v-181h110v-95h-110v-202h113z" />
    <glyph glyph-name="dcroat" unicode="&#x111;" horiz-adv-x="543" 
d="M357 86h-14q-11 -44 -44.5 -71t-78.5 -27q-92 0 -136 69.5t-44 203.5t44 203.5t136 69.5q45 0 78.5 -26.5t44.5 -71.5h14v169h-128v75h128v60h121v-60h56v-75h-56v-605h-121v86zM266 90q41 0 66 20.5t25 57.5v188q0 37 -25 57.5t-66 20.5q-47 0 -73 -29t-26 -82v-122
q0 -53 26 -82t73 -29z" />
    <glyph glyph-name="Emacron" unicode="&#x112;" horiz-adv-x="544" 
d="M73 0v698h419v-109h-294v-182h257v-106h-257v-192h294v-109h-419zM147 883h270v-91h-270v91z" />
    <glyph glyph-name="emacron" unicode="&#x113;" horiz-adv-x="505" 
d="M263 -12q-51 0 -93.5 16.5t-72.5 50t-46.5 85t-16.5 121.5q0 141 56.5 207t161.5 66t161.5 -66t56.5 -207v-29h-309v-34q0 -52 29 -82t80 -30q43 0 72.5 18.5t50.5 53.5l66 -69q-29 -46 -78 -73.5t-118 -27.5zM252 441q-91 0 -91 -108v-26h182v26q0 108 -91 108zM119 720
h270v-91h-270v91z" />
    <glyph glyph-name="Ebreve" unicode="&#x114;" horiz-adv-x="544" 
d="M73 0v698h419v-109h-294v-182h257v-106h-257v-192h294v-109h-419zM282 748q-31 0 -55 7.5t-43.5 25.5t-36 48.5t-32.5 76.5l66 35l20 -40q9 -20 18 -33t18.5 -20.5t20.5 -10.5t24 -3q26 0 44.5 14t37.5 53l20 40l65 -35q-16 -46 -32.5 -76.5t-36.5 -48.5t-44 -25.5
t-54 -7.5z" />
    <glyph glyph-name="ebreve" unicode="&#x115;" horiz-adv-x="505" 
d="M263 -12q-51 0 -93.5 16.5t-72.5 50t-46.5 85t-16.5 121.5q0 141 56.5 207t161.5 66t161.5 -66t56.5 -207v-29h-309v-34q0 -52 29 -82t80 -30q43 0 72.5 18.5t50.5 53.5l66 -69q-29 -46 -78 -73.5t-118 -27.5zM252 441q-91 0 -91 -108v-26h182v26q0 108 -91 108zM254 584
q-31 0 -55 7.5t-43.5 25.5t-36 48.5t-32.5 76.5l66 35l20 -40q9 -20 18 -33t18.5 -20.5t20.5 -10.5t24 -3q26 0 44.5 14t37.5 53l20 40l65 -35q-16 -46 -32.5 -76.5t-36.5 -48.5t-44 -25.5t-54 -7.5z" />
    <glyph glyph-name="Edotaccent" unicode="&#x116;" horiz-adv-x="544" 
d="M73 0v698h419v-109h-294v-182h257v-106h-257v-192h294v-109h-419zM282 773q-37 0 -52.5 14.5t-15.5 39.5v23q0 25 15.5 39.5t52.5 14.5t52.5 -14.5t15.5 -39.5v-23q0 -25 -15.5 -39.5t-52.5 -14.5z" />
    <glyph glyph-name="edotaccent" unicode="&#x117;" horiz-adv-x="505" 
d="M263 -12q-51 0 -93.5 16.5t-72.5 50t-46.5 85t-16.5 121.5q0 141 56.5 207t161.5 66t161.5 -66t56.5 -207v-29h-309v-34q0 -52 29 -82t80 -30q43 0 72.5 18.5t50.5 53.5l66 -69q-29 -46 -78 -73.5t-118 -27.5zM252 441q-91 0 -91 -108v-26h182v26q0 108 -91 108zM254 607
q-37 0 -52.5 14.5t-15.5 39.5v23q0 25 15.5 39.5t52.5 14.5t52.5 -14.5t15.5 -39.5v-23q0 -25 -15.5 -39.5t-52.5 -14.5z" />
    <glyph glyph-name="Eogonek" unicode="&#x118;" horiz-adv-x="543" 
d="M73 698h419v-109h-294v-182h256v-106h-256v-192h294v-109q-58 -36 -79.5 -61t-21.5 -51q0 -14 8.5 -23.5t26.5 -9.5q16 0 27.5 7t19.5 18l42 -44q-17 -20 -44 -33.5t-58 -13.5q-52 0 -79.5 20.5t-27.5 58.5t34 68t94 56l-2 8h-359v698z" />
    <glyph glyph-name="eogonek" unicode="&#x119;" horiz-adv-x="505" 
d="M287 -211q-51 0 -79 20t-28 59q0 33 28.5 63t90.5 54l-2 6q-17 -3 -34 -3q-51 0 -93.5 16.5t-72.5 50t-46.5 85t-16.5 121.5q0 141 56.5 207t161.5 66t161.5 -66t56.5 -207v-29h-309v-34q0 -52 29 -82t80 -30q43 0 72.5 18.5t50.5 53.5l66 -69q-13 -20 -29 -35t-36 -30
q-38 -28 -63 -48.5t-39.5 -36t-20.5 -27.5t-6 -24q0 -15 8.5 -24t25.5 -9t28.5 7t19.5 18l42 -44q-16 -20 -43 -33.5t-59 -13.5zM343 307v26q0 108 -91 108t-91 -108v-26h182z" />
    <glyph glyph-name="Ecaron" unicode="&#x11a;" horiz-adv-x="544" 
d="M73 0v698h419v-109h-294v-182h257v-106h-257v-192h294v-109h-419zM230 754l-121 157l61 47l112 -118l112 118l61 -47l-121 -157h-104z" />
    <glyph glyph-name="ecaron" unicode="&#x11b;" horiz-adv-x="505" 
d="M263 -12q-51 0 -93.5 16.5t-72.5 50t-46.5 85t-16.5 121.5q0 141 56.5 207t161.5 66t161.5 -66t56.5 -207v-29h-309v-34q0 -52 29 -82t80 -30q43 0 72.5 18.5t50.5 53.5l66 -69q-29 -46 -78 -73.5t-118 -27.5zM252 441q-91 0 -91 -108v-26h182v26q0 108 -91 108zM202 585
l-121 157l61 47l112 -118l112 118l61 -47l-121 -157h-104z" />
    <glyph glyph-name="Gcircumflex" unicode="&#x11c;" horiz-adv-x="641" 
d="M474 106h-14q-8 -51 -49 -84.5t-113 -33.5q-121 0 -186 93t-65 266q0 96 19.5 164.5t55.5 113t86.5 65t112.5 20.5q94 0 154 -40.5t94 -116.5l-102 -59q-17 50 -51.5 79t-94.5 29q-66 0 -103.5 -43t-37.5 -123v-174q0 -80 37.5 -123t103.5 -43q60 0 100 32t40 92v51h-122
v106h241v-377h-106v106zM376 949l121 -157l-61 -47l-112 118l-112 -118l-61 47l121 157h104z" />
    <glyph glyph-name="gcircumflex" unicode="&#x11d;" horiz-adv-x="492" 
d="M493 -46q0 -41 -12.5 -72t-41.5 -52t-77 -31.5t-118 -10.5q-62 0 -104 8.5t-68 24.5t-37 39t-11 52q0 40 22 63t63 29v19q-32 8 -47.5 30t-15.5 54t22 53.5t64 29.5v13q-85 42 -85 154q0 85 48 131t149 46q23 0 45 -2.5t41 -9.5h154v-85h-131v-12q44 -2 65.5 -26.5
t21.5 -59.5q0 -33 -11.5 -62t-35.5 -50t-61 -33.5t-87 -12.5q-42 0 -77 8q-14 -6 -21 -19t-7 -29q0 -20 13 -30t43 -10h133q89 0 126.5 -38t37.5 -109zM244 264q83 0 83 82v23q0 82 -83 82t-83 -82v-23q0 -82 83 -82zM380 -60q0 27 -18 41t-60 14h-161q-22 -19 -22 -56
q0 -32 21.5 -49t75.5 -17h59q57 0 81 16.5t24 50.5zM305 787l121 -157l-61 -47l-112 118l-112 -118l-61 47l121 157h104z" />
    <glyph glyph-name="Gbreve" unicode="&#x11e;" horiz-adv-x="641" 
d="M474 106h-14q-8 -51 -49 -84.5t-113 -33.5q-121 0 -186 93t-65 266q0 96 19.5 164.5t55.5 113t86.5 65t112.5 20.5q94 0 154 -40.5t94 -116.5l-102 -59q-17 50 -51.5 79t-94.5 29q-66 0 -103.5 -43t-37.5 -123v-174q0 -80 37.5 -123t103.5 -43q60 0 100 32t40 92v51h-122
v106h241v-377h-106v106zM324 748q-31 0 -55 7.5t-43.5 25.5t-36 48.5t-32.5 76.5l66 35l20 -40q9 -20 18 -33t18.5 -20.5t20.5 -10.5t24 -3q26 0 44.5 14t37.5 53l20 40l65 -35q-16 -46 -32.5 -76.5t-36.5 -48.5t-44 -25.5t-54 -7.5z" />
    <glyph glyph-name="gbreve" unicode="&#x11f;" horiz-adv-x="492" 
d="M493 -46q0 -41 -12.5 -72t-41.5 -52t-77 -31.5t-118 -10.5q-62 0 -104 8.5t-68 24.5t-37 39t-11 52q0 40 22 63t63 29v19q-32 8 -47.5 30t-15.5 54t22 53.5t64 29.5v13q-85 42 -85 154q0 85 48 131t149 46q23 0 45 -2.5t41 -9.5h154v-85h-131v-12q44 -2 65.5 -26.5
t21.5 -59.5q0 -33 -11.5 -62t-35.5 -50t-61 -33.5t-87 -12.5q-42 0 -77 8q-14 -6 -21 -19t-7 -29q0 -20 13 -30t43 -10h133q89 0 126.5 -38t37.5 -109zM244 264q83 0 83 82v23q0 82 -83 82t-83 -82v-23q0 -82 83 -82zM380 -60q0 27 -18 41t-60 14h-161q-22 -19 -22 -56
q0 -32 21.5 -49t75.5 -17h59q57 0 81 16.5t24 50.5zM253 584q-31 0 -55 7.5t-43.5 25.5t-36 48.5t-32.5 76.5l66 35l20 -40q9 -20 18 -33t18.5 -20.5t20.5 -10.5t24 -3q26 0 44.5 14t37.5 53l20 40l65 -35q-16 -46 -32.5 -76.5t-36.5 -48.5t-44 -25.5t-54 -7.5z" />
    <glyph glyph-name="Gdotaccent" unicode="&#x120;" horiz-adv-x="641" 
d="M474 106h-14q-8 -51 -49 -84.5t-113 -33.5q-121 0 -186 93t-65 266q0 96 19.5 164.5t55.5 113t86.5 65t112.5 20.5q94 0 154 -40.5t94 -116.5l-102 -59q-17 50 -51.5 79t-94.5 29q-66 0 -103.5 -43t-37.5 -123v-174q0 -80 37.5 -123t103.5 -43q60 0 100 32t40 92v51h-122
v106h241v-377h-106v106zM324 773q-37 0 -52.5 14.5t-15.5 39.5v23q0 25 15.5 39.5t52.5 14.5t52.5 -14.5t15.5 -39.5v-23q0 -25 -15.5 -39.5t-52.5 -14.5z" />
    <glyph glyph-name="gdotaccent" unicode="&#x121;" horiz-adv-x="492" 
d="M493 -46q0 -41 -12.5 -72t-41.5 -52t-77 -31.5t-118 -10.5q-62 0 -104 8.5t-68 24.5t-37 39t-11 52q0 40 22 63t63 29v19q-32 8 -47.5 30t-15.5 54t22 53.5t64 29.5v13q-85 42 -85 154q0 85 48 131t149 46q23 0 45 -2.5t41 -9.5h154v-85h-131v-12q44 -2 65.5 -26.5
t21.5 -59.5q0 -33 -11.5 -62t-35.5 -50t-61 -33.5t-87 -12.5q-42 0 -77 8q-14 -6 -21 -19t-7 -29q0 -20 13 -30t43 -10h133q89 0 126.5 -38t37.5 -109zM244 264q83 0 83 82v23q0 82 -83 82t-83 -82v-23q0 -82 83 -82zM380 -60q0 27 -18 41t-60 14h-161q-22 -19 -22 -56
q0 -32 21.5 -49t75.5 -17h59q57 0 81 16.5t24 50.5zM253 607q-37 0 -52.5 14.5t-15.5 39.5v23q0 25 15.5 39.5t52.5 14.5t52.5 -14.5t15.5 -39.5v-23q0 -25 -15.5 -39.5t-52.5 -14.5z" />
    <glyph glyph-name="Gcommaaccent" unicode="&#x122;" horiz-adv-x="641" 
d="M474 106h-14q-8 -51 -49 -84.5t-113 -33.5q-121 0 -186 93t-65 266q0 96 19.5 164.5t55.5 113t86.5 65t112.5 20.5q94 0 154 -40.5t94 -116.5l-102 -59q-17 50 -51.5 79t-94.5 29q-66 0 -103.5 -43t-37.5 -123v-174q0 -80 37.5 -123t103.5 -43q60 0 100 32t40 92v51h-122
v106h241v-377h-106v106zM321 -50q30 0 47 -13t17 -39v-20q0 -45 -18.5 -82.5t-45.5 -61.5h-74q23 22 37 43t20 49q-26 2 -36.5 15t-10.5 37v20q0 26 17 39t47 13z" />
    <glyph glyph-name="gcommaaccent" unicode="&#x123;" horiz-adv-x="492" 
d="M493 -46q0 -41 -12.5 -72t-41.5 -52t-77 -31.5t-118 -10.5q-62 0 -104 8.5t-68 24.5t-37 39t-11 52q0 40 22 63t63 29v19q-32 8 -47.5 30t-15.5 54t22 53.5t64 29.5v13q-85 42 -85 154q0 85 48 131t149 46q23 0 45 -2.5t41 -9.5h154v-85h-131v-12q44 -2 65.5 -26.5
t21.5 -59.5q0 -33 -11.5 -62t-35.5 -50t-61 -33.5t-87 -12.5q-42 0 -77 8q-14 -6 -21 -19t-7 -29q0 -20 13 -30t43 -10h133q89 0 126.5 -38t37.5 -109zM244 264q83 0 83 82v23q0 82 -83 82t-83 -82v-23q0 -82 83 -82zM380 -60q0 27 -18 41t-60 14h-161q-22 -19 -22 -56
q0 -32 21.5 -49t75.5 -17h59q57 0 81 16.5t24 50.5zM253 582q-64 0 -64 53v19q0 45 18.5 82.5t45.5 62.5h74q-23 -23 -36.5 -44t-20.5 -49q26 -2 36.5 -14.5t10.5 -37.5v-19q0 -53 -64 -53z" />
    <glyph glyph-name="Hcircumflex" unicode="&#x124;" horiz-adv-x="651" 
d="M453 301h-255v-301h-125v698h125v-291h255v291h125v-698h-125v301zM378 949l121 -157l-61 -47l-112 118l-112 -118l-61 47l121 157h104z" />
    <glyph glyph-name="hcircumflex" unicode="&#x125;" horiz-adv-x="532" 
d="M66 740h121v-305h14q31 99 125 99q70 0 108 -47.5t38 -135.5v-351h-121v330q0 102 -76 102q-37 0 -62.5 -21.5t-25.5 -60.5v-350h-121v740zM179 945l121 -157l-61 -47l-112 118l-112 -118l-61 47l121 157h104z" />
    <glyph glyph-name="Hbar" unicode="&#x126;" horiz-adv-x="657" 
d="M457 301h-255v-301h-125v519h-65v79h65v100h125v-100h255v100h125v-100h64v-79h-64v-519h-125v301zM457 407v112h-255v-112h255z" />
    <glyph glyph-name="hbar" unicode="&#x127;" horiz-adv-x="531" 
d="M66 0v605h-57v75h57v60h121v-60h127v-75h-127v-170h14q31 99 125 99q70 0 108 -47.5t38 -135.5v-351h-121v330q0 102 -76 102q-37 0 -62.5 -21.5t-25.5 -60.5v-350h-121z" />
    <glyph glyph-name="Itilde" unicode="&#x128;" horiz-adv-x="387" 
d="M48 0v99h83v500h-83v99h291v-99h-83v-500h83v-99h-291zM266 770q-18 0 -33 4.5t-41 18.5t-41.5 19.5t-26.5 5.5q-17 0 -27.5 -6.5t-24.5 -20.5l-44 56q17 27 42 42.5t54 15.5q18 0 33 -4.5t41 -18.5t41.5 -19.5t26.5 -5.5q17 0 27.5 6.5t24.5 20.5l44 -56
q-17 -27 -42 -42.5t-54 -15.5z" />
    <glyph glyph-name="itilde" unicode="&#x129;" horiz-adv-x="254" 
d="M67 0v522h121v-522h-121zM187 609q-17 0 -33 6t-31 15t-29 14.5t-24 5.5q-23 0 -44 -22l-42 56q18 29 38 41.5t47 12.5q17 0 33 -6t31 -15t29.5 -14.5t23.5 -5.5q13 0 22.5 5t21.5 17l42 -56q-18 -29 -38 -41.5t-47 -12.5z" />
    <glyph glyph-name="Imacron" unicode="&#x12a;" horiz-adv-x="387" 
d="M48 0v99h83v500h-83v99h291v-99h-83v-500h83v-99h-291zM60 883h270v-91h-270v91z" />
    <glyph glyph-name="imacron" unicode="&#x12b;" horiz-adv-x="254" 
d="M67 0v522h121v-522h-121zM-2 720h260v-92h-260v92z" />
    <glyph glyph-name="Ibreve" unicode="&#x12c;" horiz-adv-x="387" 
d="M48 0v99h83v500h-83v99h291v-99h-83v-500h83v-99h-291zM195 748q-31 0 -55 7.5t-43.5 25.5t-36 48.5t-32.5 76.5l66 35l20 -40q9 -20 18 -33t18.5 -20.5t20.5 -10.5t24 -3q26 0 44.5 14t37.5 53l20 40l65 -35q-16 -46 -32.5 -76.5t-36.5 -48.5t-44 -25.5t-54 -7.5z" />
    <glyph glyph-name="ibreve" unicode="&#x12d;" horiz-adv-x="254" 
d="M67 0v522h121v-522h-121zM128 584q-30 0 -53.5 8.5t-41.5 28t-32 50.5t-26 77l66 28l17 -43q13 -35 28 -49t42 -14t42.5 14.5t28.5 48.5l16 43l66 -28q-12 -46 -26.5 -77t-33 -50.5t-41.5 -28t-52 -8.5z" />
    <glyph glyph-name="Iogonek" unicode="&#x12e;" horiz-adv-x="388" 
d="M48 99h83v500h-83v99h291v-99h-83v-500h83v-99q-58 -36 -79.5 -61t-21.5 -51q0 -14 8.5 -23.5t26.5 -9.5q17 0 28.5 7t19.5 18l42 -44q-17 -20 -43.5 -33.5t-58.5 -13.5q-52 0 -79.5 20.5t-27.5 58.5q0 36 32 67t95 57l-1 8h-232v99z" />
    <glyph glyph-name="iogonek" unicode="&#x12f;" horiz-adv-x="254" 
d="M127 604q-38 0 -55 16.5t-17 44.5v20q0 28 17 44.5t55 16.5t55 -16.5t17 -44.5v-20q0 -28 -17 -44.5t-55 -16.5zM211 -164q-16 -20 -43 -33.5t-59 -13.5q-52 0 -79.5 20.5t-27.5 58.5t33.5 68.5t97.5 55.5l-2 8h-64v522h121v-522q-58 -36 -79.5 -61t-21.5 -51
q0 -33 34 -33q17 0 28.5 7t19.5 18z" />
    <glyph glyph-name="Idotaccent" unicode="&#x130;" horiz-adv-x="387" 
d="M48 0v99h83v500h-83v99h291v-99h-83v-500h83v-99h-291zM195 773q-37 0 -52.5 14.5t-15.5 39.5v23q0 25 15.5 39.5t52.5 14.5t52.5 -14.5t15.5 -39.5v-23q0 -25 -15.5 -39.5t-52.5 -14.5z" />
    <glyph glyph-name="dotlessi" unicode="&#x131;" horiz-adv-x="254" 
d="M67 0v522h121v-522h-121z" />
    <glyph glyph-name="IJ" unicode="&#x132;" horiz-adv-x="589" 
d="M520 698v-509q0 -94 -58.5 -147t-165.5 -53q-101 0 -153.5 48.5t-66.5 134.5l115 24q8 -52 33.5 -76t70.5 -24q100 0 100 103v394h-90v105h215zM70 698h125v-397h-125v397z" />
    <glyph glyph-name="ij" unicode="&#x133;" horiz-adv-x="505" 
d="M126 604q-38 0 -55 16.5t-17 44.5v20q0 28 17 44.5t55 16.5t55 -16.5t17 -44.5v-20q0 -28 -17 -44.5t-55 -16.5zM66 522h121v-522h-121v522zM319 522h121v-600q0 -63 -29 -92.5t-95 -29.5h-69v97h72v625zM380 604q-38 0 -55 16.5t-17 44.5v20q0 28 17 44.5t55 16.5
t55 -16.5t17 -44.5v-20q0 -28 -17 -44.5t-55 -16.5z" />
    <glyph glyph-name="Jcircumflex" unicode="&#x134;" horiz-adv-x="494" 
d="M426 698v-518q0 -91 -52.5 -141.5t-149.5 -50.5q-92 0 -139.5 47.5t-61.5 133.5l113 24q8 -51 28 -74t59 -23q37 0 57.5 22t20.5 73v404h-194v103h319zM320 949l121 -157l-61 -47l-112 118l-112 -118l-61 47l121 157h104z" />
    <glyph glyph-name="jcircumflex" unicode="&#x135;" horiz-adv-x="255" 
d="M-4 -103h72v625h121v-600q0 -63 -29 -92.5t-95 -29.5h-69v97zM182 787l106 -157l-61 -47l-97 118l-97 -118l-61 47l106 157h104z" />
    <glyph glyph-name="Kcommaaccent" unicode="&#x136;" horiz-adv-x="614" 
d="M282 320l-84 -111v-209h-125v698h125v-228l-6 -121h14l79 121l159 228h141l-217 -293l234 -405h-146zM320 -50q30 0 47 -13t17 -39v-20q0 -45 -18.5 -82.5t-45.5 -61.5h-74q23 22 37 43t20 49q-26 2 -36.5 15t-10.5 37v20q0 26 17 39t47 13z" />
    <glyph glyph-name="kcommaaccent" unicode="&#x137;" horiz-adv-x="511" 
d="M66 740h121v-345l-8 -108h14l61 96l104 139h137l-163 -205l172 -317h-136l-120 239l-61 -76v-163h-121v740zM270 -50q30 0 47 -13t17 -39v-20q0 -45 -18.5 -82.5t-45.5 -61.5h-74q23 22 37 43t20 49q-26 2 -36.5 15t-10.5 37v20q0 26 17 39t47 13z" />
    <glyph glyph-name="kgreenlandic" unicode="&#x138;" horiz-adv-x="511" 
d="M248 239l-61 -76v-163h-121v522h121v-126l-8 -108h14l61 96l104 138h137l-163 -205l172 -317h-136z" />
    <glyph glyph-name="Lacute" unicode="&#x139;" horiz-adv-x="473" 
d="M73 0v698h125v-589h245v-109h-370zM150 744l-73 35l88 189l104 -51z" />
    <glyph glyph-name="lacute" unicode="&#x13a;" horiz-adv-x="268" 
d="M184 0q-63 0 -90.5 28t-27.5 88v624h121v-643h60v-97h-63zM140 781l-73 35l88 189l104 -51z" />
    <glyph glyph-name="Lcommaaccent" unicode="&#x13b;" horiz-adv-x="473" 
d="M73 0v698h125v-589h245v-109h-370zM261 -50q30 0 47 -13t17 -39v-20q0 -45 -18.5 -82.5t-45.5 -61.5h-74q23 22 37 43t20 49q-26 2 -36.5 15t-10.5 37v20q0 26 17 39t47 13z" />
    <glyph glyph-name="lcommaaccent" unicode="&#x13c;" horiz-adv-x="268" 
d="M184 0q-63 0 -90.5 28t-27.5 88v624h121v-643h60v-97h-63zM155 -50q30 0 47 -13t17 -39v-20q0 -45 -18.5 -82.5t-45.5 -61.5h-74q23 22 37 43t20 49q-26 2 -36.5 15t-10.5 37v20q0 26 17 39t47 13z" />
    <glyph glyph-name="Lcaron" unicode="&#x13d;" horiz-adv-x="473" 
d="M73 0v698h125v-589h245v-109h-370zM336 534h-72l8 206h122z" />
    <glyph glyph-name="lcaron" unicode="&#x13e;" horiz-adv-x="268" 
d="M184 0q-63 0 -90.5 28t-27.5 88v624h121v-643h60v-97h-63zM311 534h-72l8 206h122z" />
    <glyph glyph-name="Ldot" unicode="&#x13f;" horiz-adv-x="473" 
d="M73 0v698h125v-589h245v-109h-370zM364 308q-37 0 -52.5 14.5t-15.5 39.5v23q0 25 15.5 39.5t52.5 14.5t52.5 -14.5t15.5 -39.5v-23q0 -25 -15.5 -39.5t-52.5 -14.5z" />
    <glyph glyph-name="ldot" unicode="&#x140;" horiz-adv-x="376" 
d="M184 0q-63 0 -90.5 28t-27.5 88v624h121v-643h60v-97h-63zM311 273q-37 0 -52.5 14.5t-15.5 39.5v23q0 25 15.5 39.5t52.5 14.5t52.5 -14.5t15.5 -39.5v-23q0 -25 -15.5 -39.5t-52.5 -14.5z" />
    <glyph glyph-name="Lslash" unicode="&#x141;" horiz-adv-x="481" 
d="M452 0h-371v254l-78 -28v89l78 29v354h125v-310l145 51v-90l-145 -51v-189h246v-109z" />
    <glyph glyph-name="lslash" unicode="&#x142;" horiz-adv-x="268" 
d="M246 0h-63q-64 0 -91 28t-27 88v192l-68 -23v90l68 23v342h121v-299l85 30v-90l-85 -30v-254h60v-97z" />
    <glyph glyph-name="Nacute" unicode="&#x143;" horiz-adv-x="651" 
d="M246 397l-49 121h-14l8 -125v-393h-118v698h139l193 -397l49 -121h14l-8 125v393h118v-698h-139zM338 744l-73 35l88 189l104 -51z" />
    <glyph glyph-name="nacute" unicode="&#x144;" horiz-adv-x="532" 
d="M66 0v522h121v-87h14q31 99 125 99q70 0 108 -47.5t38 -135.5v-351h-121v330q0 102 -76 102q-37 0 -62.5 -21.5t-25.5 -60.5v-350h-121zM283 581l-73 35l88 189l104 -51z" />
    <glyph glyph-name="Ncommaaccent" unicode="&#x145;" horiz-adv-x="651" 
d="M246 397l-49 121h-14l8 -125v-393h-118v698h139l193 -397l49 -121h14l-8 125v393h118v-698h-139zM324 -50q30 0 47 -13t17 -39v-20q0 -45 -18.5 -82.5t-45.5 -61.5h-74q23 22 37 43t20 49q-26 2 -36.5 15t-10.5 37v20q0 26 17 39t47 13z" />
    <glyph glyph-name="ncommaaccent" unicode="&#x146;" horiz-adv-x="532" 
d="M66 0v522h121v-87h14q31 99 125 99q70 0 108 -47.5t38 -135.5v-351h-121v330q0 102 -76 102q-37 0 -62.5 -21.5t-25.5 -60.5v-350h-121zM268 -50q30 0 47 -13t17 -39v-20q0 -45 -18.5 -82.5t-45.5 -61.5h-74q23 22 37 43t20 49q-26 2 -36.5 15t-10.5 37v20q0 26 17 39
t47 13z" />
    <glyph glyph-name="Ncaron" unicode="&#x147;" horiz-adv-x="651" 
d="M246 397l-49 121h-14l8 -125v-393h-118v698h139l193 -397l49 -121h14l-8 125v393h118v-698h-139zM273 754l-121 157l61 47l112 -118l112 118l61 -47l-121 -157h-104z" />
    <glyph glyph-name="ncaron" unicode="&#x148;" horiz-adv-x="532" 
d="M66 0v522h121v-87h14q31 99 125 99q70 0 108 -47.5t38 -135.5v-351h-121v330q0 102 -76 102q-37 0 -62.5 -21.5t-25.5 -60.5v-350h-121zM218 585l-121 157l61 47l112 -118l112 118l61 -47l-121 -157h-104z" />
    <glyph glyph-name="napostrophe" unicode="&#x149;" horiz-adv-x="789" 
d="M135 748q38 0 56 -17.5t18 -48.5v-23q0 -52 -26 -102.5t-70 -85.5h-79q31 31 51.5 60.5t30.5 65.5q-55 9 -55 62v23q0 31 18 48.5t56 17.5zM324 0v522h121v-87h14q31 99 125 99q70 0 108 -47.5t38 -135.5v-351h-121v330q0 102 -76 102q-37 0 -62.5 -21.5t-25.5 -60.5
v-350h-121z" />
    <glyph glyph-name="Eng" unicode="&#x14a;" horiz-adv-x="649" 
d="M73 0v698h139l193 -397l48 -121h14l-7 125v393h118v-776q0 -63 -29 -92.5t-97 -29.5h-68v97h76v103h-21l-193 397l-49 121h-14l8 -125v-393h-118z" />
    <glyph glyph-name="eng" unicode="&#x14b;" horiz-adv-x="531" 
d="M279 -103h72v433q0 102 -76 102q-37 0 -62.5 -21t-25.5 -61v-350h-121v522h121v-87h14q31 99 125 99q70 0 108 -47.5t38 -135.5v-429q0 -63 -29 -92.5t-95 -29.5h-69v97z" />
    <glyph glyph-name="Omacron" unicode="&#x14c;" horiz-adv-x="642" 
d="M321 -12q-63 0 -113.5 20.5t-86 64t-55 112t-19.5 164.5t19.5 164.5t55 112t86 64t113.5 20.5t113.5 -20.5t86 -64t55 -112t19.5 -164.5t-19.5 -164.5t-55 -112t-86 -64t-113.5 -20.5zM321 98q68 0 105 42.5t37 121.5v174q0 79 -37 121.5t-105 42.5t-105 -42.5
t-37 -121.5v-174q0 -79 37 -121.5t105 -42.5zM185 883h270v-91h-270v91z" />
    <glyph glyph-name="omacron" unicode="&#x14d;" horiz-adv-x="506" 
d="M253 -12q-104 0 -161.5 66t-57.5 207t57.5 207t161.5 66t161.5 -66t57.5 -207t-57.5 -207t-161.5 -66zM253 86q92 0 92 108v134q0 108 -92 108t-92 -108v-134q0 -108 92 -108zM119 720h270v-91h-270v91z" />
    <glyph glyph-name="Obreve" unicode="&#x14e;" horiz-adv-x="642" 
d="M321 -12q-63 0 -113.5 20.5t-86 64t-55 112t-19.5 164.5t19.5 164.5t55 112t86 64t113.5 20.5t113.5 -20.5t86 -64t55 -112t19.5 -164.5t-19.5 -164.5t-55 -112t-86 -64t-113.5 -20.5zM321 98q68 0 105 42.5t37 121.5v174q0 79 -37 121.5t-105 42.5t-105 -42.5
t-37 -121.5v-174q0 -79 37 -121.5t105 -42.5zM320 748q-31 0 -55 7.5t-43.5 25.5t-36 48.5t-32.5 76.5l66 35l20 -40q9 -20 18 -33t18.5 -20.5t20.5 -10.5t24 -3q26 0 44.5 14t37.5 53l20 40l65 -35q-16 -46 -32.5 -76.5t-36.5 -48.5t-44 -25.5t-54 -7.5z" />
    <glyph glyph-name="obreve" unicode="&#x14f;" horiz-adv-x="506" 
d="M253 -12q-104 0 -161.5 66t-57.5 207t57.5 207t161.5 66t161.5 -66t57.5 -207t-57.5 -207t-161.5 -66zM253 86q92 0 92 108v134q0 108 -92 108t-92 -108v-134q0 -108 92 -108zM254 584q-31 0 -55 7.5t-43.5 25.5t-36 48.5t-32.5 76.5l66 35l20 -40q9 -20 18 -33
t18.5 -20.5t20.5 -10.5t24 -3q26 0 44.5 14t37.5 53l20 40l65 -35q-16 -46 -32.5 -76.5t-36.5 -48.5t-44 -25.5t-54 -7.5z" />
    <glyph glyph-name="Ohungarumlaut" unicode="&#x150;" horiz-adv-x="642" 
d="M321 -12q-63 0 -113.5 20.5t-86 64t-55 112t-19.5 164.5t19.5 164.5t55 112t86 64t113.5 20.5t113.5 -20.5t86 -64t55 -112t19.5 -164.5t-19.5 -164.5t-55 -112t-86 -64t-113.5 -20.5zM321 98q68 0 105 42.5t37 121.5v174q0 79 -37 121.5t-105 42.5t-105 -42.5
t-37 -121.5v-174q0 -79 37 -121.5t105 -42.5zM241 745l-67 32l89 189l97 -48zM418 745l-67 32l89 189l96 -48z" />
    <glyph glyph-name="ohungarumlaut" unicode="&#x151;" horiz-adv-x="506" 
d="M253 -12q-104 0 -161.5 66t-57.5 207t57.5 207t161.5 66t161.5 -66t57.5 -207t-57.5 -207t-161.5 -66zM253 86q92 0 92 108v134q0 108 -92 108t-92 -108v-134q0 -108 92 -108zM175 581l-67 32l89 189l97 -48zM352 581l-67 32l89 189l96 -48z" />
    <glyph glyph-name="OE" unicode="&#x152;" horiz-adv-x="896" 
d="M435 0q-26 -7 -54 -9.5t-55 -2.5q-65 0 -116.5 20.5t-87.5 64t-55.5 112t-19.5 164.5t19.5 164.5t55.5 112t87.5 64t116.5 20.5q27 0 55 -2.5t54 -9.5h409v-109h-294v-182h257v-106h-257v-192h294v-109h-409zM179 262q0 -79 38 -121.5t109 -42.5q32 0 55.5 3t43.5 11v474
q-20 8 -43.5 11t-55.5 3q-71 0 -109 -42.5t-38 -121.5v-174z" />
    <glyph glyph-name="oe" unicode="&#x153;" horiz-adv-x="818" 
d="M254 86q92 0 92 108v134q0 108 -92 108t-92 -108v-134q0 -108 92 -108zM656 307v26q0 108 -91 108t-91 -108v-26h182zM583 -12q-61 0 -107 29t-59 76h-13q-11 -52 -54.5 -78.5t-102.5 -26.5q-100 0 -156 66t-56 207t56 207t156 66q59 0 102.5 -26.5t54.5 -77.5h13
q11 51 54.5 77.5t102.5 26.5q100 0 154.5 -66t54.5 -207v-30h-309v-33q0 -53 29 -82.5t80 -29.5q43 0 72.5 18.5t50.5 53.5l66 -69q-29 -46 -78 -73.5t-111 -27.5z" />
    <glyph glyph-name="Racute" unicode="&#x154;" horiz-adv-x="601" 
d="M198 0h-125v698h289q92 0 139.5 -56t47.5 -156q0 -79 -30 -130.5t-88 -70.5l127 -285h-135l-115 275h-110v-275zM349 379q32 0 50.5 17t18.5 57v62q0 40 -18.5 57t-50.5 17h-151v-210h151zM302 744l-73 35l88 189l104 -51z" />
    <glyph glyph-name="racute" unicode="&#x155;" horiz-adv-x="357" 
d="M66 0v522h121v-107h14q9 52 37.5 79.5t74.5 27.5h26v-124h-40q-57 0 -84.5 -18t-27.5 -63v-317h-121zM214 581l-73 35l88 189l104 -51z" />
    <glyph glyph-name="Rcommaaccent" unicode="&#x156;" horiz-adv-x="601" 
d="M198 0h-125v698h289q92 0 139.5 -56t47.5 -156q0 -79 -30 -130.5t-88 -70.5l127 -285h-135l-115 275h-110v-275zM349 379q32 0 50.5 17t18.5 57v62q0 40 -18.5 57t-50.5 17h-151v-210h151zM292 -50q30 0 47 -13t17 -39v-20q0 -45 -18.5 -82.5t-45.5 -61.5h-74
q23 22 37 43t20 49q-26 2 -36.5 15t-10.5 37v20q0 26 17 39t47 13z" />
    <glyph glyph-name="rcommaaccent" unicode="&#x157;" horiz-adv-x="357" 
d="M66 0v522h121v-107h14q9 52 37.5 79.5t74.5 27.5h26v-124h-40q-57 0 -84.5 -18t-27.5 -63v-317h-121zM125 -50q30 0 47 -13t17 -39v-20q0 -45 -18.5 -82.5t-45.5 -61.5h-74q23 22 37 43t20 49q-26 2 -36.5 15t-10.5 37v20q0 26 17 39t47 13z" />
    <glyph glyph-name="Rcaron" unicode="&#x158;" horiz-adv-x="601" 
d="M198 0h-125v698h289q92 0 139.5 -56t47.5 -156q0 -79 -30 -130.5t-88 -70.5l127 -285h-135l-115 275h-110v-275zM349 379q32 0 50.5 17t18.5 57v62q0 40 -18.5 57t-50.5 17h-151v-210h151zM237 754l-121 157l61 47l112 -118l112 118l61 -47l-121 -157h-104z" />
    <glyph glyph-name="rcaron" unicode="&#x159;" horiz-adv-x="357" 
d="M66 0v522h121v-107h14q9 52 37.5 79.5t74.5 27.5h26v-124h-40q-57 0 -84.5 -18t-27.5 -63v-317h-121zM149 585l-121 157l61 47l112 -118l112 118l61 -47l-121 -157h-104z" />
    <glyph glyph-name="Sacute" unicode="&#x15a;" horiz-adv-x="546" 
d="M269 -12q-78 0 -137.5 28.5t-102.5 84.5l82 79q30 -41 70 -62.5t90 -21.5q112 0 112 102q0 42 -20 64t-66 32l-61 12q-95 20 -140 68t-45 134q0 100 59.5 151t169.5 51q75 0 128.5 -24.5t91.5 -76.5l-82 -77q-26 35 -59 52.5t-81 17.5q-53 0 -78 -21t-25 -68
q0 -39 19.5 -60t63.5 -31l61 -13q51 -11 86.5 -27t58 -40t33 -56.5t10.5 -76.5q0 -108 -61.5 -164.5t-176.5 -56.5zM291 744l-73 35l88 189l104 -51z" />
    <glyph glyph-name="sacute" unicode="&#x15b;" horiz-adv-x="449" 
d="M224 -12q-65 0 -114 23.5t-86 70.5l74 72q25 -35 56 -53t72 -18q76 0 76 64q0 25 -12.5 39.5t-42.5 19.5l-49 9q-82 15 -119 51t-37 105q0 82 48 122.5t136 40.5q61 0 105.5 -20t77.5 -59l-71 -71q-20 25 -48.5 40t-63.5 15q-70 0 -70 -63q0 -26 14 -39.5t44 -18.5l50 -9
q82 -15 117.5 -50.5t35.5 -99.5q0 -81 -50 -126t-143 -45zM240 581l-73 35l88 189l104 -51z" />
    <glyph glyph-name="Scircumflex" unicode="&#x15c;" horiz-adv-x="546" 
d="M269 -12q-78 0 -137.5 28.5t-102.5 84.5l82 79q30 -41 70 -62.5t90 -21.5q112 0 112 102q0 42 -20 64t-66 32l-61 12q-95 20 -140 68t-45 134q0 100 59.5 151t169.5 51q75 0 128.5 -24.5t91.5 -76.5l-82 -77q-26 35 -59 52.5t-81 17.5q-53 0 -78 -21t-25 -68
q0 -39 19.5 -60t63.5 -31l61 -13q51 -11 86.5 -27t58 -40t33 -56.5t10.5 -76.5q0 -108 -61.5 -164.5t-176.5 -56.5zM330 949l121 -157l-61 -47l-112 118l-112 -118l-61 47l121 157h104z" />
    <glyph glyph-name="scircumflex" unicode="&#x15d;" horiz-adv-x="449" 
d="M224 -12q-65 0 -114 23.5t-86 70.5l74 72q25 -35 56 -53t72 -18q76 0 76 64q0 25 -12.5 39.5t-42.5 19.5l-49 9q-82 15 -119 51t-37 105q0 82 48 122.5t136 40.5q61 0 105.5 -20t77.5 -59l-71 -71q-20 25 -48.5 40t-63.5 15q-70 0 -70 -63q0 -26 14 -39.5t44 -18.5l50 -9
q82 -15 117.5 -50.5t35.5 -99.5q0 -81 -50 -126t-143 -45zM279 787l121 -157l-61 -47l-112 118l-112 -118l-61 47l121 157h104z" />
    <glyph glyph-name="Scedilla" unicode="&#x15e;" horiz-adv-x="551" 
d="M278 602q-53 0 -78 -21t-25 -68q0 -39 19.5 -60t63.5 -31l61 -13q51 -11 86.5 -27t58 -40t33 -56.5t10.5 -76.5q0 -102 -55 -158t-158 -62l-10 -58h9q4 8 13.5 13.5t25.5 5.5q64 0 64 -70q0 -89 -115 -89q-75 0 -108 42l38 48q10 -11 24 -18t37 -7q22 0 31.5 7t9.5 24
t-9.5 24t-31.5 7h-48l13 71q-131 10 -208 112l82 79q30 -41 70 -62.5t90 -21.5q112 0 112 102q0 42 -20 64t-66 32l-61 12q-95 20 -140 68t-45 134q0 100 59.5 151t169.5 51q75 0 128.5 -24.5t91.5 -76.5l-82 -77q-26 35 -59 52.5t-81 17.5z" />
    <glyph glyph-name="scedilla" unicode="&#x15f;" horiz-adv-x="449" 
d="M235 -209q-75 0 -108 42l38 48q9 -11 23.5 -18t37.5 -7q22 0 31.5 7t9.5 24t-9.5 24t-31.5 7h-49l14 72q-54 5 -94.5 28t-72.5 64l74 72q25 -35 56 -53t72 -18q76 0 76 64q0 25 -12.5 39.5t-42.5 19.5l-49 9q-82 15 -119 51t-37 105q0 82 48 122.5t136 40.5
q61 0 105.5 -20t77.5 -59l-71 -71q-20 25 -48.5 40t-63.5 15q-70 0 -70 -63q0 -26 14 -39.5t44 -18.5l50 -9q82 -15 117.5 -50.5t35.5 -99.5q0 -76 -44 -120.5t-125 -49.5l-10 -58h9q3 8 13 13.5t26 5.5q63 0 63 -70q0 -48 -30.5 -68.5t-83.5 -20.5z" />
    <glyph glyph-name="Scaron" unicode="&#x160;" horiz-adv-x="546" 
d="M269 -12q-78 0 -137.5 28.5t-102.5 84.5l82 79q30 -41 70 -62.5t90 -21.5q112 0 112 102q0 42 -20 64t-66 32l-61 12q-95 20 -140 68t-45 134q0 100 59.5 151t169.5 51q75 0 128.5 -24.5t91.5 -76.5l-82 -77q-26 35 -59 52.5t-81 17.5q-53 0 -78 -21t-25 -68
q0 -39 19.5 -60t63.5 -31l61 -13q51 -11 86.5 -27t58 -40t33 -56.5t10.5 -76.5q0 -108 -61.5 -164.5t-176.5 -56.5zM226 754l-121 157l61 47l112 -118l112 118l61 -47l-121 -157h-104z" />
    <glyph glyph-name="scaron" unicode="&#x161;" horiz-adv-x="449" 
d="M224 -12q-65 0 -114 23.5t-86 70.5l74 72q25 -35 56 -53t72 -18q76 0 76 64q0 25 -12.5 39.5t-42.5 19.5l-49 9q-82 15 -119 51t-37 105q0 82 48 122.5t136 40.5q61 0 105.5 -20t77.5 -59l-71 -71q-20 25 -48.5 40t-63.5 15q-70 0 -70 -63q0 -26 14 -39.5t44 -18.5l50 -9
q82 -15 117.5 -50.5t35.5 -99.5q0 -81 -50 -126t-143 -45zM175 585l-121 157l61 47l112 -118l112 118l61 -47l-121 -157h-104z" />
    <glyph glyph-name="Tcommaaccent" unicode="&#x162;" horiz-adv-x="524" 
d="M324 589v-589h-125v589h-175v109h476v-109h-176zM261 -50q30 0 47 -13t17 -39v-20q0 -45 -18.5 -82.5t-45.5 -61.5h-74q23 22 37 43t20 49q-26 2 -36.5 15t-10.5 37v20q0 26 17 39t47 13z" />
    <glyph glyph-name="tcommaaccent" unicode="&#x163;" horiz-adv-x="334" 
d="M210 0q-63 0 -91 28t-28 89v308h-69v97h36q26 0 35.5 12t9.5 38v92h109v-142h94v-97h-94v-328h86v-97h-88zM195 -50q30 0 47 -13t17 -39v-20q0 -45 -18.5 -82.5t-45.5 -61.5h-74q23 22 37 43t20 49q-26 2 -36.5 15t-10.5 37v20q0 26 17 39t47 13z" />
    <glyph glyph-name="Tcaron" unicode="&#x164;" horiz-adv-x="524" 
d="M324 589v-589h-125v589h-175v109h476v-109h-176zM211 754l-121 157l61 47l112 -118l112 118l61 -47l-121 -157h-104z" />
    <glyph glyph-name="tcaron" unicode="&#x165;" horiz-adv-x="334" 
d="M210 0q-63 0 -91 28t-28 89v308h-69v97h36q26 0 35.5 12t9.5 38v92h109v-142h94v-97h-94v-328h86v-97h-88zM336 573h-72l8 206h122z" />
    <glyph glyph-name="Tbar" unicode="&#x166;" horiz-adv-x="528" 
d="M324 297v-297h-125v297h-124v95h124v197h-175v109h475v-109h-175v-197h124v-95h-124z" />
    <glyph glyph-name="tbar" unicode="&#x167;" horiz-adv-x="340" 
d="M298 0h-88q-63 0 -91 28t-28 89v121h-56v77h56v110h-69v97h36q26 0 35.5 12t9.5 38v92h109v-142h94v-97h-94v-110h83v-77h-83v-141h86v-97z" />
    <glyph glyph-name="Utilde" unicode="&#x168;" horiz-adv-x="624" 
d="M193 698v-453q0 -77 25.5 -113t93.5 -36t93.5 36t25.5 113v453h125v-435q0 -72 -12.5 -124t-41.5 -85.5t-75.5 -49.5t-114.5 -16t-114.5 16t-75.5 49.5t-41.5 85.5t-12.5 124v435h125zM383 770q-18 0 -33 4.5t-41 18.5t-41.5 19.5t-26.5 5.5q-17 0 -27.5 -6.5
t-24.5 -20.5l-44 56q17 27 42 42.5t54 15.5q18 0 33 -4.5t41 -18.5t41.5 -19.5t26.5 -5.5q17 0 27.5 6.5t24.5 20.5l44 -56q-17 -27 -42 -42.5t-54 -15.5z" />
    <glyph glyph-name="utilde" unicode="&#x169;" horiz-adv-x="533" 
d="M346 88h-14q-30 -100 -127 -100q-70 0 -107.5 47.5t-37.5 136.5v350h121v-330q0 -103 76 -103q37 0 63 22t26 61v350h121v-522h-121v88zM335 606q-18 0 -33 4.5t-41 18.5t-41.5 19.5t-26.5 5.5q-17 0 -27.5 -6.5t-24.5 -20.5l-44 56q17 27 42 42.5t54 15.5q18 0 33 -4.5
t41 -18.5t41.5 -19.5t26.5 -5.5q17 0 27.5 6.5t24.5 20.5l44 -56q-17 -27 -42 -42.5t-54 -15.5z" />
    <glyph glyph-name="Umacron" unicode="&#x16a;" horiz-adv-x="624" 
d="M193 698v-453q0 -77 25.5 -113t93.5 -36t93.5 36t25.5 113v453h125v-435q0 -72 -12.5 -124t-41.5 -85.5t-75.5 -49.5t-114.5 -16t-114.5 16t-75.5 49.5t-41.5 85.5t-12.5 124v435h125zM177 883h270v-91h-270v91z" />
    <glyph glyph-name="umacron" unicode="&#x16b;" horiz-adv-x="533" 
d="M346 88h-14q-30 -100 -127 -100q-70 0 -107.5 47.5t-37.5 136.5v350h121v-330q0 -103 76 -103q37 0 63 22t26 61v350h121v-522h-121v88zM129 720h270v-91h-270v91z" />
    <glyph glyph-name="Ubreve" unicode="&#x16c;" horiz-adv-x="624" 
d="M193 698v-453q0 -77 25.5 -113t93.5 -36t93.5 36t25.5 113v453h125v-435q0 -72 -12.5 -124t-41.5 -85.5t-75.5 -49.5t-114.5 -16t-114.5 16t-75.5 49.5t-41.5 85.5t-12.5 124v435h125zM312 748q-31 0 -55 7.5t-43.5 25.5t-36 48.5t-32.5 76.5l66 35l20 -40q9 -20 18 -33
t18.5 -20.5t20.5 -10.5t24 -3q26 0 44.5 14t37.5 53l20 40l65 -35q-16 -46 -32.5 -76.5t-36.5 -48.5t-44 -25.5t-54 -7.5z" />
    <glyph glyph-name="ubreve" unicode="&#x16d;" horiz-adv-x="533" 
d="M346 88h-14q-30 -100 -127 -100q-70 0 -107.5 47.5t-37.5 136.5v350h121v-330q0 -103 76 -103q37 0 63 22t26 61v350h121v-522h-121v88zM264 584q-31 0 -55 7.5t-43.5 25.5t-36 48.5t-32.5 76.5l66 35l20 -40q9 -20 18 -33t18.5 -20.5t20.5 -10.5t24 -3q26 0 44.5 14
t37.5 53l20 40l65 -35q-16 -46 -32.5 -76.5t-36.5 -48.5t-44 -25.5t-54 -7.5z" />
    <glyph glyph-name="Uring" unicode="&#x16e;" horiz-adv-x="624" 
d="M193 698v-453q0 -77 25.5 -113t93.5 -36t93.5 36t25.5 113v453h125v-435q0 -72 -12.5 -124t-41.5 -85.5t-75.5 -49.5t-114.5 -16t-114.5 16t-75.5 49.5t-41.5 85.5t-12.5 124v435h125zM312 727q-62 0 -97.5 36.5t-35.5 98.5t35.5 98.5t97.5 36.5t97.5 -36.5t35.5 -98.5
t-35.5 -98.5t-97.5 -36.5zM312 792q24 0 38 11.5t14 34.5v48q0 23 -14 34.5t-38 11.5t-38 -11.5t-14 -34.5v-48q0 -23 14 -34.5t38 -11.5z" />
    <glyph glyph-name="uring" unicode="&#x16f;" horiz-adv-x="533" 
d="M346 88h-14q-30 -100 -127 -100q-70 0 -107.5 47.5t-37.5 136.5v350h121v-330q0 -103 76 -103q37 0 63 22t26 61v350h121v-522h-121v88zM264 563q-62 0 -97.5 36.5t-35.5 98.5t35.5 98.5t97.5 36.5t97.5 -36.5t35.5 -98.5t-35.5 -98.5t-97.5 -36.5zM264 628q24 0 38 11.5
t14 34.5v48q0 23 -14 34.5t-38 11.5t-38 -11.5t-14 -34.5v-48q0 -23 14 -34.5t38 -11.5z" />
    <glyph glyph-name="Uhungarumlaut" unicode="&#x170;" horiz-adv-x="624" 
d="M193 698v-453q0 -77 25.5 -113t93.5 -36t93.5 36t25.5 113v453h125v-435q0 -72 -12.5 -124t-41.5 -85.5t-75.5 -49.5t-114.5 -16t-114.5 16t-75.5 49.5t-41.5 85.5t-12.5 124v435h125zM233 745l-67 32l89 189l97 -48zM410 745l-67 32l89 189l96 -48z" />
    <glyph glyph-name="uhungarumlaut" unicode="&#x171;" horiz-adv-x="533" 
d="M346 88h-14q-30 -100 -127 -100q-70 0 -107.5 47.5t-37.5 136.5v350h121v-330q0 -103 76 -103q37 0 63 22t26 61v350h121v-522h-121v88zM185 581l-67 32l89 189l97 -48zM362 581l-67 32l89 189l96 -48z" />
    <glyph glyph-name="Uogonek" unicode="&#x172;" horiz-adv-x="625" 
d="M193 698v-453q0 -76 25.5 -112t93.5 -36t93.5 36t25.5 112v453h125v-435q0 -82 -17 -139t-56 -89q-39 -33 -63.5 -55.5t-39 -39.5t-20 -29.5t-5.5 -24.5q0 -13 8.5 -22t25.5 -9t28.5 7t19.5 18l42 -44q-16 -20 -43 -33.5t-59 -13.5q-52 0 -79.5 19.5t-27.5 54.5
q0 34 28 63t90 62l-1 9q-17 -4 -36 -6.5t-39 -2.5q-68 0 -114.5 16t-75.5 49.5t-41.5 85.5t-12.5 124v435h125z" />
    <glyph glyph-name="uogonek" unicode="&#x173;" horiz-adv-x="532" 
d="M490 -164q-16 -20 -43 -33.5t-59 -13.5q-51 0 -79 20t-28 59q0 37 32.5 68t95.5 56l-2 8h-61v88h-14q-30 -100 -127 -100q-70 0 -107.5 47.5t-37.5 136.5v350h121v-330q0 -103 76 -103q37 0 63 22t26 61v350h121v-522q-58 -35 -79.5 -60.5t-21.5 -51.5q0 -15 8.5 -24
t25.5 -9t28.5 7t19.5 18l42 -44v0z" />
    <glyph glyph-name="Wcircumflex" unicode="&#x174;" horiz-adv-x="861" 
d="M168 0l-143 698h124l74 -405l20 -159h14l20 156l85 408h142l85 -408l20 -156h15l20 159l73 405h120l-150 -698h-144l-86 416l-20 151h-14l-20 -151l-88 -416h-147zM483 949l121 -157l-61 -47l-112 118l-112 -118l-61 47l121 157h104z" />
    <glyph glyph-name="wcircumflex" unicode="&#x175;" horiz-adv-x="741" 
d="M16 522h119l51 -244l25 -168h12l30 168l58 244h122l59 -244l30 -168h12l25 168l53 244h112l-127 -522h-136l-61 254l-23 155h-13l-24 -155l-61 -254h-136zM422 787l121 -157l-61 -47l-112 118l-112 -118l-61 47l121 157h104z" />
    <glyph glyph-name="Ycircumflex" unicode="&#x176;" horiz-adv-x="566" 
d="M221 0v267l-214 431h137l135 -300h14l132 300h134l-213 -431v-267h-125zM336 949l121 -157l-61 -47l-112 118l-112 -118l-61 47l121 157h104z" />
    <glyph glyph-name="ycircumflex" unicode="&#x177;" horiz-adv-x="483" 
d="M353 522h121l-199 -631q-17 -53 -48 -72t-87 -19h-82v97h103l21 74l-174 551h123l78 -282l28 -137h12l28 138zM295 787l121 -157l-61 -47l-112 118l-112 -118l-61 47l121 157h104z" />
    <glyph glyph-name="Ydieresis" unicode="&#x178;" horiz-adv-x="566" 
d="M221 0v267l-214 431h137l135 -300h14l132 300h134l-213 -431v-267h-125zM191 773q-37 0 -51.5 13.5t-14.5 39.5v25q0 26 14.5 39.5t51.5 13.5t51.5 -13.5t14.5 -39.5v-25q0 -26 -14.5 -39.5t-51.5 -13.5zM377 773q-37 0 -51.5 13.5t-14.5 39.5v25q0 26 14.5 39.5
t51.5 13.5t51.5 -13.5t14.5 -39.5v-25q0 -26 -14.5 -39.5t-51.5 -13.5z" />
    <glyph glyph-name="Zacute" unicode="&#x179;" 
d="M506 0h-471v110l320 479h-304v109h446v-110l-320 -479h329v-109zM286 744l-73 35l88 189l104 -51z" />
    <glyph glyph-name="zacute" unicode="&#x17a;" horiz-adv-x="452" 
d="M34 0v95l241 330h-233v97h370v-94l-242 -331h248v-97h-384zM240 581l-73 35l88 189l104 -51z" />
    <glyph glyph-name="Zdotaccent" unicode="&#x17b;" 
d="M506 0h-471v110l320 479h-304v109h446v-110l-320 -479h329v-109zM273 773q-37 0 -52.5 14.5t-15.5 39.5v23q0 25 15.5 39.5t52.5 14.5t52.5 -14.5t15.5 -39.5v-23q0 -25 -15.5 -39.5t-52.5 -14.5z" />
    <glyph glyph-name="zdotaccent" unicode="&#x17c;" horiz-adv-x="452" 
d="M34 0v95l241 330h-233v97h370v-94l-242 -331h248v-97h-384zM227 607q-37 0 -52.5 14.5t-15.5 39.5v23q0 25 15.5 39.5t52.5 14.5t52.5 -14.5t15.5 -39.5v-23q0 -25 -15.5 -39.5t-52.5 -14.5z" />
    <glyph glyph-name="Zcaron" unicode="&#x17d;" 
d="M506 0h-471v110l320 479h-304v109h446v-110l-320 -479h329v-109zM221 754l-121 157l61 47l112 -118l112 118l61 -47l-121 -157h-104z" />
    <glyph glyph-name="zcaron" unicode="&#x17e;" horiz-adv-x="452" 
d="M34 0v95l241 330h-233v97h370v-94l-242 -331h248v-97h-384zM175 585l-121 157l61 47l112 -118l112 118l61 -47l-121 -157h-104z" />
    <glyph glyph-name="uni018F" unicode="&#x18f;" horiz-adv-x="643" 
d="M321 -12q-63 0 -114 20.5t-86.5 64t-55 112t-19.5 164.5v37h415v30q0 99 -33.5 142t-106.5 43q-63 0 -95.5 -30t-47.5 -90l-110 39q12 42 33 77t52 60t73 39t95 14q63 0 114 -20.5t86.5 -64t55 -112t19.5 -164.5t-19.5 -164.5t-55 -112t-86.5 -64t-114 -20.5zM180 273
q0 -92 33 -134t108 -42t108 42t33 134v15h-282v-15z" />
    <glyph glyph-name="florin" unicode="&#x192;" horiz-adv-x="436" 
d="M13 -37h108l28 308h-102l11 102h101l18 204q5 60 36 90.5t100 30.5h110l-10 -97h-114l-20 -228h121l-11 -102h-120l-25 -284q-5 -61 -35.5 -91t-99.5 -30h-105z" />
    <glyph glyph-name="Ohorn" unicode="&#x1a0;" horiz-adv-x="641" 
d="M616 804v-104q0 -23 -3.5 -39t-13 -25.5t-26 -13.5t-41.5 -4h-95v-12q84 -9 121 -70t37 -187q0 -96 -19.5 -164.5t-55 -112t-86 -64t-113.5 -20.5t-113.5 20.5t-86 64t-55 112t-19.5 164.5t19.5 164.5t55 112t86 64t113.5 20.5q48 0 89 -12h107v106h99zM321 98
q68 0 105 42.5t37 121.5v174q0 79 -37 121.5t-105 42.5t-105 -42.5t-37 -121.5v-174q0 -79 37 -121.5t105 -42.5z" />
    <glyph glyph-name="ohorn" unicode="&#x1a1;" horiz-adv-x="508" 
d="M504 628v-104q0 -34 -18.5 -52.5t-64.5 -18.5h-73v-12q60 -3 92.5 -50t32.5 -130q0 -141 -57.5 -207t-161.5 -66t-161.5 66t-57.5 207t57.5 207t161.5 66q45 0 81 -12h70v106h99zM254 86q92 0 92 108v134q0 108 -92 108t-92 -108v-134q0 -108 92 -108z" />
    <glyph glyph-name="Uhorn" unicode="&#x1af;" horiz-adv-x="634" 
d="M556 263q0 -72 -12.5 -124t-41.5 -85.5t-75.5 -49.5t-114.5 -16t-114.5 16t-75.5 49.5t-41.5 85.5t-12.5 124v435h125v-453q0 -76 25.5 -112t93.5 -36t93.5 36t25.5 112v453h103v106h99v-104q0 -42 -15 -59t-59 -18h-3v-360v0z" />
    <glyph glyph-name="uhorn" unicode="&#x1b0;" horiz-adv-x="543" 
d="M332 88q-30 -100 -127 -100q-70 0 -107.5 47.5t-37.5 136.5v350h121v-330q0 -103 76 -103q37 0 63 22t26 61v350h100v106h99v-104q0 -41 -15 -58.5t-59 -18.5h-4v-447h-121v88h-14v0z" />
    <glyph glyph-name="Aringacute" unicode="&#x1fa;" horiz-adv-x="606" 
d="M463 0l-49 182h-225l-49 -182h-120l204 698h158l204 -698h-123zM330 474l-22 111h-14l-22 -111l-53 -191h165zM294 979l-44 41l112 123l64 -60zM304 729q-62 0 -97.5 30.5t-35.5 87.5t35.5 87.5t97.5 30.5t97.5 -30.5t35.5 -87.5t-35.5 -87.5t-97.5 -30.5zM304 789
q24 0 39.5 12t15.5 33v26q0 21 -15.5 33t-39.5 12t-39.5 -12t-15.5 -33v-26q0 -21 15.5 -33t39.5 -12z" />
    <glyph glyph-name="aringacute" unicode="&#x1fb;" horiz-adv-x="507" 
d="M406 0q-81 0 -85 89h-12q-10 -48 -45 -74.5t-87 -26.5q-72 0 -108 40t-36 112q0 82 51 122t147 40h81v45q0 46 -19.5 68t-64.5 22q-37 0 -62 -17.5t-44 -49.5l-71 64q29 45 73.5 72.5t113.5 27.5q195 0 195 -184v-253h46v-97h-73zM223 77q37 0 63 21.5t26 59.5v69h-73
q-84 0 -84 -65v-22q0 -33 18 -48t50 -15zM230 815l-44 41l112 123l64 -60zM240 565q-62 0 -97.5 30.5t-35.5 87.5t35.5 87.5t97.5 30.5t97.5 -30.5t35.5 -87.5t-35.5 -87.5t-97.5 -30.5zM240 625q24 0 39.5 12t15.5 33v26q0 21 -15.5 33t-39.5 12t-39.5 -12t-15.5 -33v-26
q0 -21 15.5 -33t39.5 -12z" />
    <glyph glyph-name="AEacute" unicode="&#x1fc;" horiz-adv-x="859" 
d="M388 180h-186l-76 -180h-126l304 698h503v-109h-294v-182h257v-106h-257v-192h294v-109h-419v180zM373 589l-129 -305h144v305h-15zM540 744l-73 35l88 189l104 -51z" />
    <glyph glyph-name="aeacute" unicode="&#x1fd;" horiz-adv-x="782" 
d="M239 230q-43 0 -63.5 -18t-20.5 -50v-22q0 -33 18 -48t50 -15q37 0 63 21.5t26 59.5v72h-73zM621 304v29q0 108 -91 108t-91 -108v-29h182zM548 86q43 0 72.5 18.5t50.5 53.5l66 -69q-29 -46 -77.5 -73.5t-115.5 -27.5q-63 0 -109.5 30t-57.5 77h-15q-12 -48 -59 -77.5
t-119 -29.5q-77 0 -114 40t-37 112q0 81 51 122.5t147 41.5h81v43q0 45 -19.5 67.5t-64.5 22.5q-37 0 -62 -17.5t-44 -49.5l-71 64q29 45 74 72.5t111 27.5q54 0 91 -29t45 -78h12q11 54 54 80.5t101 26.5q99 0 154 -66.5t55 -207.5v-30h-309v-32q0 -53 29 -82.5t80 -29.5z
M405 581l-73 35l88 189l104 -51z" />
    <glyph glyph-name="Oslashacute" unicode="&#x1fe;" horiz-adv-x="641" 
d="M321 -12q-83 0 -143 36l-45 -74l-78 48l54 90q-62 88 -62 261q0 96 19.5 164.5t55 112t86 64t113.5 20.5q83 0 143 -36l45 74l78 -48l-54 -90q62 -88 62 -261q0 -96 -19.5 -164.5t-55 -112t-86 -64t-113.5 -20.5zM183 186l132 230l98 162q-35 29 -93 29q-71 0 -109 -43
t-38 -125v-133l-4 -120h14zM229 120q35 -29 93 -29q71 0 109 43t38 125v133l4 120h-14l-132 -230zM333 744l-73 35l88 189l104 -51z" />
    <glyph glyph-name="oslashacute" unicode="&#x1ff;" horiz-adv-x="512" 
d="M254 -12q-76 0 -125 34l-51 -66l-63 48l57 77q-18 33 -28 77.5t-10 102.5q0 141 57.5 207.5t161.5 66.5q76 0 125 -34l51 66l63 -48l-57 -77q18 -33 28 -77.5t10 -103.5q0 -140 -57.5 -206.5t-161.5 -66.5zM157 175l77 118l89 124q-12 11 -29.5 18t-40.5 7
q-96 0 -96 -109v-55l-11 -103h11zM184 106q12 -11 29.5 -18t40.5 -7q96 0 96 109v54l11 104h-11l-77 -118zM270 581l-73 35l88 189l104 -51z" />
    <glyph glyph-name="Scommaaccent" unicode="&#x218;" horiz-adv-x="546" 
d="M269 -12q-78 0 -137.5 28.5t-102.5 84.5l82 79q30 -41 70 -62.5t90 -21.5q112 0 112 102q0 42 -20 64t-66 32l-61 12q-95 20 -140 68t-45 134q0 100 59.5 151t169.5 51q75 0 128.5 -24.5t91.5 -76.5l-82 -77q-26 35 -59 52.5t-81 17.5q-53 0 -78 -21t-25 -68
q0 -39 19.5 -60t63.5 -31l61 -13q51 -11 86.5 -27t58 -40t33 -56.5t10.5 -76.5q0 -108 -61.5 -164.5t-176.5 -56.5zM267 -50q30 0 47 -13t17 -39v-20q0 -45 -18.5 -82.5t-45.5 -61.5h-74q23 22 37 43t20 49q-26 2 -36.5 15t-10.5 37v20q0 26 17 39t47 13z" />
    <glyph glyph-name="scommaaccent" unicode="&#x219;" horiz-adv-x="449" 
d="M224 -12q-65 0 -114 23.5t-86 70.5l74 72q25 -35 56 -53t72 -18q76 0 76 64q0 25 -12.5 39.5t-42.5 19.5l-49 9q-82 15 -119 51t-37 105q0 82 48 122.5t136 40.5q61 0 105.5 -20t77.5 -59l-71 -71q-20 25 -48.5 40t-63.5 15q-70 0 -70 -63q0 -26 14 -39.5t44 -18.5l50 -9
q82 -15 117.5 -50.5t35.5 -99.5q0 -81 -50 -126t-143 -45zM225 -50q30 0 47 -13t17 -39v-20q0 -45 -18.5 -82.5t-45.5 -61.5h-74q23 22 37 43t20 49q-26 2 -36.5 15t-10.5 37v20q0 26 17 39t47 13z" />
    <glyph glyph-name="uni021A" unicode="&#x21a;" horiz-adv-x="524" 
d="M324 589v-589h-125v589h-175v109h476v-109h-176zM261 -50q30 0 47 -13t17 -39v-20q0 -45 -18.5 -82.5t-45.5 -61.5h-74q23 22 37 43t20 49q-26 2 -36.5 15t-10.5 37v20q0 26 17 39t47 13z" />
    <glyph glyph-name="uni021B" unicode="&#x21b;" horiz-adv-x="334" 
d="M210 0q-63 0 -91 28t-28 89v308h-69v97h36q26 0 35.5 12t9.5 38v92h109v-142h94v-97h-94v-328h86v-97h-88zM195 -50q30 0 47 -13t17 -39v-20q0 -45 -18.5 -82.5t-45.5 -61.5h-74q23 22 37 43t20 49q-26 2 -36.5 15t-10.5 37v20q0 26 17 39t47 13z" />
    <glyph glyph-name="uni0237" unicode="&#x237;" horiz-adv-x="255" 
d="M-4 -103h72v625h121v-600q0 -63 -29 -92.5t-95 -29.5h-69v97z" />
    <glyph glyph-name="uni0259" unicode="&#x259;" horiz-adv-x="505" 
d="M343 290v34q0 52 -29 82t-80 30q-43 0 -72.5 -18.5t-50.5 -53.5l-66 69q29 46 78 73.5t118 27.5q51 0 93.5 -16.5t72.5 -50.5t46.5 -85t16.5 -121q0 -141 -56.5 -207t-161.5 -66t-161.5 66t-56.5 207v29h309zM161 189q0 -108 91 -108t91 108v26h-182v-26z" />
    <glyph glyph-name="uni02BB" unicode="&#x2bb;" 
d="M270 582q-64 0 -64 53v19q0 45 18.5 82.5t45.5 62.5h74q-23 -23 -36.5 -44t-20.5 -49q26 -2 36.5 -14.5t10.5 -37.5v-19q0 -53 -64 -53z" />
    <glyph glyph-name="uni02BC" unicode="&#x2bc;" 
d="M342 534h-72l8 206h122z" />
    <glyph glyph-name="circumflex" unicode="&#x2c6;" 
d="M322 787l121 -157l-61 -47l-112 118l-112 -118l-61 47l121 157h104z" />
    <glyph glyph-name="caron" unicode="&#x2c7;" 
d="M218 585l-121 157l61 47l112 -118l112 118l61 -47l-121 -157h-104z" />
    <glyph glyph-name="breve" unicode="&#x2d8;" 
d="M270 584q-31 0 -55 7.5t-43.5 25.5t-36 48.5t-32.5 76.5l66 35l20 -40q9 -20 18 -33t18.5 -20.5t20.5 -10.5t24 -3q26 0 44.5 14t37.5 53l20 40l65 -35q-16 -46 -32.5 -76.5t-36.5 -48.5t-44 -25.5t-54 -7.5z" />
    <glyph glyph-name="dotaccent" unicode="&#x2d9;" 
d="M270 607q-37 0 -52.5 14.5t-15.5 39.5v23q0 25 15.5 39.5t52.5 14.5t52.5 -14.5t15.5 -39.5v-23q0 -25 -15.5 -39.5t-52.5 -14.5z" />
    <glyph glyph-name="ring" unicode="&#x2da;" 
d="M270 563q-62 0 -97.5 36.5t-35.5 98.5t35.5 98.5t97.5 36.5t97.5 -36.5t35.5 -98.5t-35.5 -98.5t-97.5 -36.5zM270 628q24 0 38 11.5t14 34.5v48q0 23 -14 34.5t-38 11.5t-38 -11.5t-14 -34.5v-48q0 -23 14 -34.5t38 -11.5z" />
    <glyph glyph-name="ogonek" unicode="&#x2db;" 
d="M191 -211q-51 0 -79 20t-28 59q0 36 29.5 68t86.5 56v30h61l9 -22q-57 -35 -79 -60.5t-22 -51.5q0 -15 9 -24t26 -9q16 0 27.5 7t19.5 18l43 -44q-17 -20 -44 -33.5t-59 -13.5z" />
    <glyph glyph-name="tilde" unicode="&#x2dc;" 
d="M341 606q-18 0 -33 4.5t-41 18.5t-41.5 19.5t-26.5 5.5q-17 0 -27.5 -6.5t-24.5 -20.5l-44 56q17 27 42 42.5t54 15.5q18 0 33 -4.5t41 -18.5t41.5 -19.5t26.5 -5.5q17 0 27.5 6.5t24.5 20.5l44 -56q-17 -27 -42 -42.5t-54 -15.5z" />
    <glyph glyph-name="hungarumlaut" unicode="&#x2dd;" 
d="M191 581l-67 32l89 189l97 -48zM368 581l-67 32l89 189l96 -48z" />
    <glyph glyph-name="uni0300" unicode="&#x300;" horiz-adv-x="0" 
d="M-131 754l104 51l88 -189l-73 -35z" />
    <glyph glyph-name="uni0301" unicode="&#x301;" horiz-adv-x="0" 
d="M14 581l-73 35l88 189l104 -51z" />
    <glyph glyph-name="uni0302" unicode="&#x302;" horiz-adv-x="0" 
d="M53 787l121 -157l-61 -47l-112 118l-112 -118l-61 47l121 157h104z" />
    <glyph glyph-name="uni0303" unicode="&#x303;" horiz-adv-x="0" 
d="M72 606q-18 0 -33 4.5t-41 18.5t-41.5 19.5t-26.5 5.5q-17 0 -27.5 -6.5t-24.5 -20.5l-44 56q17 27 42 42.5t54 15.5q18 0 33 -4.5t41 -18.5t41.5 -19.5t26.5 -5.5q17 0 27.5 6.5t24.5 20.5l44 -56q-17 -27 -42 -42.5t-54 -15.5z" />
    <glyph glyph-name="uni0304" unicode="&#x304;" horiz-adv-x="0" 
d="M-134 720h270v-91h-270v91z" />
    <glyph glyph-name="uni0306" unicode="&#x306;" horiz-adv-x="0" 
d="M1 584q-31 0 -55 7.5t-43.5 25.5t-36 48.5t-32.5 76.5l66 35l20 -40q9 -20 18 -33t18.5 -20.5t20.5 -10.5t24 -3q26 0 44.5 14t37.5 53l20 40l65 -35q-16 -46 -32.5 -76.5t-36.5 -48.5t-44 -25.5t-54 -7.5z" />
    <glyph glyph-name="uni0307" unicode="&#x307;" horiz-adv-x="0" 
d="M1 607q-37 0 -52.5 14.5t-15.5 39.5v23q0 25 15.5 39.5t52.5 14.5t52.5 -14.5t15.5 -39.5v-23q0 -25 -15.5 -39.5t-52.5 -14.5z" />
    <glyph glyph-name="uni0308" unicode="&#x308;" horiz-adv-x="0" 
d="M-92 607q-37 0 -51.5 13.5t-14.5 39.5v25q0 26 14.5 39.5t51.5 13.5t51.5 -13.5t14.5 -39.5v-25q0 -26 -14.5 -39.5t-51.5 -13.5zM94 607q-37 0 -51.5 13.5t-14.5 39.5v25q0 26 14.5 39.5t51.5 13.5t51.5 -13.5t14.5 -39.5v-25q0 -26 -14.5 -39.5t-51.5 -13.5z" />
    <glyph glyph-name="uni0309" unicode="&#x309;" horiz-adv-x="0" 
d="M-102 791h130q45 0 63 -17.5t18 -49.5q0 -26 -9.5 -46.5t-30.5 -51.5l-38 -55l-65 30l45 101h-113v89z" />
    <glyph glyph-name="uni030A" unicode="&#x30a;" horiz-adv-x="0" 
d="M1 563q-62 0 -97.5 36.5t-35.5 98.5t35.5 98.5t97.5 36.5t97.5 -36.5t35.5 -98.5t-35.5 -98.5t-97.5 -36.5zM1 628q24 0 38 11.5t14 34.5v48q0 23 -14 34.5t-38 11.5t-38 -11.5t-14 -34.5v-48q0 -23 14 -34.5t38 -11.5z" />
    <glyph glyph-name="uni030B" unicode="&#x30b;" horiz-adv-x="0" 
d="M-78 581l-67 32l89 189l97 -48zM99 581l-67 32l89 189l96 -48z" />
    <glyph glyph-name="uni030C" unicode="&#x30c;" horiz-adv-x="0" 
d="M-51 585l-121 157l61 47l112 -118l112 118l61 -47l-121 -157h-104z" />
    <glyph glyph-name="uni0312" unicode="&#x312;" horiz-adv-x="0" 
d="M1 582q-64 0 -64 53v19q0 45 18.5 82.5t45.5 62.5h74q-23 -23 -36.5 -44t-20.5 -49q26 -2 36.5 -14.5t10.5 -37.5v-19q0 -53 -64 -53z" />
    <glyph glyph-name="uni0315" unicode="&#x315;" horiz-adv-x="0" 
d="M72 534h-72l8 206h122z" />
    <glyph glyph-name="uni031B" unicode="&#x31b;" horiz-adv-x="0" 
d="M104 524q0 -22 -3.5 -36.5t-13 -23.5t-26 -13t-41.5 -4h-124v75h109v105h99v-103z" />
    <glyph glyph-name="uni0323" unicode="&#x323;" horiz-adv-x="0" 
d="M0 -189q-37 0 -52.5 14t-15.5 38v27q0 24 15.5 38t52.5 14t52.5 -14t15.5 -38v-27q0 -24 -15.5 -38t-52.5 -14z" />
    <glyph glyph-name="uni0326" unicode="&#x326;" horiz-adv-x="0" 
d="M-1 -50q30 0 47 -13t17 -39v-20q0 -45 -18.5 -82.5t-45.5 -61.5h-74q23 22 37 43t20 49q-26 2 -36.5 15t-10.5 37v20q0 26 17 39t47 13z" />
    <glyph glyph-name="uni0327" unicode="&#x327;" horiz-adv-x="0" 
d="M14 -209q-75 0 -108 42l38 48q9 -11 23.5 -18t37.5 -7q22 0 31.5 7t9.5 24t-9.5 24t-31.5 7h-49l20 106h58l-17 -93h9q3 8 13 13.5t26 5.5q64 0 64 -70q0 -89 -115 -89z" />
    <glyph glyph-name="uni0328" unicode="&#x328;" horiz-adv-x="0" 
d="M-80 -211q-51 0 -79 20t-28 59q0 36 29.5 68t86.5 56v30h61l9 -22q-57 -35 -79 -60.5t-22 -51.5q0 -15 9 -24t26 -9q16 0 27.5 7t19.5 18l43 -44q-17 -20 -44 -33.5t-59 -13.5z" />
    <glyph glyph-name="pi" unicode="&#x3c0;" horiz-adv-x="567" 
d="M470 97h69v-97h-70q-63 0 -91.5 28t-28.5 89v308h-139v-425h-121v425h-69v97h520v-97h-70v-328z" />
    <glyph glyph-name="uni0E3F" unicode="&#xe3f;" horiz-adv-x="596" 
d="M346 -82h-95v102h-178v658h178v102h95v-102h31q78 0 117 -43t39 -126q0 -71 -27.5 -102.5t-85.5 -36.5v-14q136 -5 136 -147q0 -86 -41 -137.5t-113 -51.5h-56v-102zM262 401v177h-74v-177h74zM336 401h17q58 0 58 67v43q0 67 -58 67h-17v-177zM262 121v185h-74v-185h74z
M336 121h34q63 0 63 70v45q0 70 -63 70h-34v-185z" />
    <glyph glyph-name="Wgrave" unicode="&#x1e80;" horiz-adv-x="861" 
d="M168 0l-143 698h124l74 -405l20 -159h14l20 156l85 408h142l85 -408l20 -156h15l20 159l73 405h120l-150 -698h-144l-86 416l-20 151h-14l-20 -151l-88 -416h-147zM299 917l104 51l88 -189l-73 -35z" />
    <glyph glyph-name="wgrave" unicode="&#x1e81;" horiz-adv-x="741" 
d="M16 522h119l51 -244l25 -168h12l30 168l58 244h122l59 -244l30 -168h12l25 168l53 244h112l-127 -522h-136l-61 254l-23 155h-13l-24 -155l-61 -254h-136zM238 754l104 51l88 -189l-73 -35z" />
    <glyph glyph-name="Wacute" unicode="&#x1e82;" horiz-adv-x="861" 
d="M168 0l-143 698h124l74 -405l20 -159h14l20 156l85 408h142l85 -408l20 -156h15l20 159l73 405h120l-150 -698h-144l-86 416l-20 151h-14l-20 -151l-88 -416h-147zM444 744l-73 35l88 189l104 -51z" />
    <glyph glyph-name="wacute" unicode="&#x1e83;" horiz-adv-x="741" 
d="M16 522h119l51 -244l25 -168h12l30 168l58 244h122l59 -244l30 -168h12l25 168l53 244h112l-127 -522h-136l-61 254l-23 155h-13l-24 -155l-61 -254h-136zM383 581l-73 35l88 189l104 -51z" />
    <glyph glyph-name="Wdieresis" unicode="&#x1e84;" horiz-adv-x="861" 
d="M168 0l-143 698h124l74 -405l20 -159h14l20 156l85 408h142l85 -408l20 -156h15l20 159l73 405h120l-150 -698h-144l-86 416l-20 151h-14l-20 -151l-88 -416h-147zM338 773q-37 0 -51.5 13.5t-14.5 39.5v25q0 26 14.5 39.5t51.5 13.5t51.5 -13.5t14.5 -39.5v-25
q0 -26 -14.5 -39.5t-51.5 -13.5zM524 773q-37 0 -51.5 13.5t-14.5 39.5v25q0 26 14.5 39.5t51.5 13.5t51.5 -13.5t14.5 -39.5v-25q0 -26 -14.5 -39.5t-51.5 -13.5z" />
    <glyph glyph-name="wdieresis" unicode="&#x1e85;" horiz-adv-x="741" 
d="M16 522h119l51 -244l25 -168h12l30 168l58 244h122l59 -244l30 -168h12l25 168l53 244h112l-127 -522h-136l-61 254l-23 155h-13l-24 -155l-61 -254h-136zM277 607q-37 0 -51.5 13.5t-14.5 39.5v25q0 26 14.5 39.5t51.5 13.5t51.5 -13.5t14.5 -39.5v-25
q0 -26 -14.5 -39.5t-51.5 -13.5zM463 607q-37 0 -51.5 13.5t-14.5 39.5v25q0 26 14.5 39.5t51.5 13.5t51.5 -13.5t14.5 -39.5v-25q0 -26 -14.5 -39.5t-51.5 -13.5z" />
    <glyph glyph-name="uni1E9E" unicode="&#x1e9e;" horiz-adv-x="648" 
d="M622 208q0 -111 -54 -165.5t-150 -54.5q-63 0 -106 21.5t-72 63.5l76 74q23 -29 46.5 -41t55.5 -12q37 0 57.5 21t20.5 61v57q0 40 -22.5 60.5t-71.5 20.5h-83v101l125 174h-246v-589h-125v698h496v-115l-127 -171v-4q85 -3 132.5 -51.5t47.5 -148.5z" />
    <glyph glyph-name="uni1EA0" unicode="&#x1ea0;" horiz-adv-x="606" 
d="M463 0l-49 182h-225l-49 -182h-120l204 698h158l204 -698h-123zM330 474l-22 111h-14l-22 -111l-53 -191h165zM304 -189q-37 0 -52.5 14t-15.5 38v27q0 24 15.5 38t52.5 14t52.5 -14t15.5 -38v-27q0 -24 -15.5 -38t-52.5 -14z" />
    <glyph glyph-name="uni1EA1" unicode="&#x1ea1;" horiz-adv-x="507" 
d="M406 0q-81 0 -85 89h-12q-10 -48 -45 -74.5t-87 -26.5q-72 0 -108 40t-36 112q0 82 51 122t147 40h81v45q0 46 -19.5 68t-64.5 22q-37 0 -62 -17.5t-44 -49.5l-71 64q29 45 73.5 72.5t113.5 27.5q195 0 195 -184v-253h46v-97h-73zM223 77q37 0 63 21.5t26 59.5v69h-73
q-84 0 -84 -65v-22q0 -33 18 -48t50 -15zM238 -189q-37 0 -52.5 14t-15.5 38v27q0 24 15.5 38t52.5 14t52.5 -14t15.5 -38v-27q0 -24 -15.5 -38t-52.5 -14z" />
    <glyph glyph-name="uni1EA2" unicode="&#x1ea2;" horiz-adv-x="606" 
d="M463 0l-49 182h-225l-49 -182h-120l204 698h158l204 -698h-123zM330 474l-22 111h-14l-22 -111l-53 -191h165zM202 955h130q45 0 63 -17.5t18 -49.5q0 -26 -9.5 -46.5t-30.5 -51.5l-38 -55l-65 30l45 101h-113v89z" />
    <glyph glyph-name="uni1EA3" unicode="&#x1ea3;" horiz-adv-x="507" 
d="M406 0q-81 0 -85 89h-12q-10 -48 -45 -74.5t-87 -26.5q-72 0 -108 40t-36 112q0 82 51 122t147 40h81v45q0 46 -19.5 68t-64.5 22q-37 0 -62 -17.5t-44 -49.5l-71 64q29 45 73.5 72.5t113.5 27.5q195 0 195 -184v-253h46v-97h-73zM223 77q37 0 63 21.5t26 59.5v69h-73
q-84 0 -84 -65v-22q0 -33 18 -48t50 -15zM137 791h130q45 0 63 -17.5t18 -49.5q0 -26 -9.5 -46.5t-30.5 -51.5l-38 -55l-65 30l45 101h-113v89z" />
    <glyph glyph-name="uni1EA4" unicode="&#x1ea4;" horiz-adv-x="606" 
d="M463 0l-49 182h-225l-49 -182h-120l204 698h158l204 -698h-123zM330 474l-22 111h-14l-22 -111l-53 -191h165zM469 887l-65 35l83 186l95 -50zM356 934l125 -148l-57 -49l-119 117l-120 -117l-56 49l124 148h103z" />
    <glyph glyph-name="uni1EA5" unicode="&#x1ea5;" horiz-adv-x="507" 
d="M406 0q-81 0 -85 89h-12q-10 -48 -45 -74.5t-87 -26.5q-72 0 -108 40t-36 112q0 82 51 122t147 40h81v45q0 46 -19.5 68t-64.5 22q-37 0 -62 -17.5t-44 -49.5l-71 64q29 45 73.5 72.5t113.5 27.5q195 0 195 -184v-253h46v-97h-73zM223 77q37 0 63 21.5t26 59.5v69h-73
q-84 0 -84 -65v-22q0 -33 18 -48t50 -15zM404 723l-65 35l83 186l95 -50zM291 770l125 -148l-57 -49l-119 117l-120 -117l-56 49l124 148h103z" />
    <glyph glyph-name="uni1EA6" unicode="&#x1ea6;" horiz-adv-x="606" 
d="M463 0l-49 182h-225l-49 -182h-120l204 698h158l204 -698h-123zM330 474l-22 111h-14l-22 -111l-53 -191h165zM26 1058l96 50l84 -186l-65 -35zM355 934l125 -148l-57 -49l-119 117l-120 -117l-56 49l124 148h103z" />
    <glyph glyph-name="uni1EA7" unicode="&#x1ea7;" horiz-adv-x="507" 
d="M406 0q-81 0 -85 89h-12q-10 -48 -45 -74.5t-87 -26.5q-72 0 -108 40t-36 112q0 82 51 122t147 40h81v45q0 46 -19.5 68t-64.5 22q-37 0 -62 -17.5t-44 -49.5l-71 64q29 45 73.5 72.5t113.5 27.5q195 0 195 -184v-253h46v-97h-73zM223 77q37 0 63 21.5t26 59.5v69h-73
q-84 0 -84 -65v-22q0 -33 18 -48t50 -15zM-38 894l96 50l84 -186l-65 -35zM291 770l125 -148l-57 -49l-119 117l-120 -117l-56 49l124 148h103z" />
    <glyph glyph-name="uni1EA8" unicode="&#x1ea8;" horiz-adv-x="606" 
d="M463 0l-49 182h-225l-49 -182h-120l204 698h158l204 -698h-123zM330 474l-22 111h-14l-22 -111l-53 -191h165zM344 1095h116q45 0 62.5 -17.5t17.5 -49.5q0 -26 -9 -47t-30 -51l-34 -47l-51 26l44 105h-116v81zM356 934l125 -148l-57 -49l-119 117l-120 -117l-56 49
l124 148h103z" />
    <glyph glyph-name="uni1EA9" unicode="&#x1ea9;" horiz-adv-x="507" 
d="M406 0q-81 0 -85 89h-12q-10 -48 -45 -74.5t-87 -26.5q-72 0 -108 40t-36 112q0 82 51 122t147 40h81v45q0 46 -19.5 68t-64.5 22q-37 0 -62 -17.5t-44 -49.5l-71 64q29 45 73.5 72.5t113.5 27.5q195 0 195 -184v-253h46v-97h-73zM223 77q37 0 63 21.5t26 59.5v69h-73
q-84 0 -84 -65v-22q0 -33 18 -48t50 -15zM279 931h116q45 0 62.5 -17.5t17.5 -49.5q0 -26 -9 -47t-30 -51l-34 -47l-51 26l44 105h-116v81zM291 770l125 -148l-57 -49l-119 117l-120 -117l-56 49l124 148h103z" />
    <glyph glyph-name="uni1EAA" unicode="&#x1eaa;" horiz-adv-x="606" 
d="M463 0l-49 182h-225l-49 -182h-120l204 698h158l204 -698h-123zM330 474l-22 111h-14l-22 -111l-53 -191h165zM232 1089q20 0 38.5 -6t36.5 -17q20 -11 37 -18.5t31 -7.5q16 0 26.5 6.5t24.5 19.5l41 -52q-37 -59 -95 -59q-20 0 -38.5 6t-36.5 17q-20 11 -37 18.5
t-31 7.5q-16 0 -26.5 -6.5t-24.5 -19.5l-41 52q37 59 95 59zM354 925l126 -139l-55 -49l-121 108l-121 -108l-55 49l126 139h100z" />
    <glyph glyph-name="uni1EAB" unicode="&#x1eab;" horiz-adv-x="507" 
d="M406 0q-81 0 -85 89h-12q-10 -48 -45 -74.5t-87 -26.5q-72 0 -108 40t-36 112q0 82 51 122t147 40h81v45q0 46 -19.5 68t-64.5 22q-37 0 -62 -17.5t-44 -49.5l-71 64q29 45 73.5 72.5t113.5 27.5q195 0 195 -184v-253h46v-97h-73zM223 77q37 0 63 21.5t26 59.5v69h-73
q-84 0 -84 -65v-22q0 -33 18 -48t50 -15zM167 925q20 0 38.5 -6t36.5 -17q20 -11 37 -18.5t31 -7.5q16 0 26.5 6.5t24.5 19.5l41 -52q-37 -59 -95 -59q-20 0 -38.5 6t-36.5 17q-20 11 -37 18.5t-31 7.5q-16 0 -26.5 -6.5t-24.5 -19.5l-41 52q37 59 95 59zM289 761l126 -139
l-55 -49l-121 108l-121 -108l-55 49l126 139h100z" />
    <glyph glyph-name="uni1EAC" unicode="&#x1eac;" horiz-adv-x="606" 
d="M463 0l-49 182h-225l-49 -182h-120l204 698h158l204 -698h-123zM330 474l-22 111h-14l-22 -111l-53 -191h165zM356 949l121 -157l-61 -47l-112 118l-112 -118l-61 47l121 157h104zM304 -189q-37 0 -52.5 14t-15.5 38v27q0 24 15.5 38t52.5 14t52.5 -14t15.5 -38v-27
q0 -24 -15.5 -38t-52.5 -14z" />
    <glyph glyph-name="uni1EAD" unicode="&#x1ead;" horiz-adv-x="507" 
d="M406 0q-81 0 -85 89h-12q-10 -48 -45 -74.5t-87 -26.5q-72 0 -108 40t-36 112q0 82 51 122t147 40h81v45q0 46 -19.5 68t-64.5 22q-37 0 -62 -17.5t-44 -49.5l-71 64q29 45 73.5 72.5t113.5 27.5q195 0 195 -184v-253h46v-97h-73zM223 77q37 0 63 21.5t26 59.5v69h-73
q-84 0 -84 -65v-22q0 -33 18 -48t50 -15zM292 787l121 -157l-61 -47l-112 118l-112 -118l-61 47l121 157h104zM238 -189q-37 0 -52.5 14t-15.5 38v27q0 24 15.5 38t52.5 14t52.5 -14t15.5 -38v-27q0 -24 -15.5 -38t-52.5 -14z" />
    <glyph glyph-name="uni1EAE" unicode="&#x1eae;" horiz-adv-x="606" 
d="M463 0l-49 182h-225l-49 -182h-120l204 698h158l204 -698h-123zM330 474l-22 111h-14l-22 -111l-53 -191h165zM304 740q-67 0 -106 35t-67 112l66 35l19 -40q14 -29 35 -44t53 -15t52.5 15t34.5 44l20 40l66 -35q-14 -39 -30 -66.5t-36 -45.5t-46.5 -26.5t-60.5 -8.5z
M319 887l-64 34l85 187l95 -49z" />
    <glyph glyph-name="uni1EAF" unicode="&#x1eaf;" horiz-adv-x="507" 
d="M406 0q-81 0 -85 89h-12q-10 -48 -45 -74.5t-87 -26.5q-72 0 -108 40t-36 112q0 82 51 122t147 40h81v45q0 46 -19.5 68t-64.5 22q-37 0 -62 -17.5t-44 -49.5l-71 64q29 45 73.5 72.5t113.5 27.5q195 0 195 -184v-253h46v-97h-73zM223 77q37 0 63 21.5t26 59.5v69h-73
q-84 0 -84 -65v-22q0 -33 18 -48t50 -15zM239 576q-67 0 -106 35t-67 112l66 35l19 -40q14 -29 35 -44t53 -15t52.5 15t34.5 44l20 40l66 -35q-14 -39 -30 -66.5t-36 -45.5t-46.5 -26.5t-60.5 -8.5zM254 723l-64 34l85 187l95 -49z" />
    <glyph glyph-name="uni1EB0" unicode="&#x1eb0;" horiz-adv-x="606" 
d="M463 0l-49 182h-225l-49 -182h-120l204 698h158l204 -698h-123zM330 474l-22 111h-14l-22 -111l-53 -191h165zM304 740q-67 0 -106 35t-67 112l66 35l19 -40q14 -29 35 -44t53 -15t52.5 15t34.5 44l20 40l66 -35q-14 -39 -30 -66.5t-36 -45.5t-46.5 -26.5t-60.5 -8.5z
M173 1059l95 49l85 -187l-64 -34z" />
    <glyph glyph-name="uni1EB1" unicode="&#x1eb1;" horiz-adv-x="507" 
d="M406 0q-81 0 -85 89h-12q-10 -48 -45 -74.5t-87 -26.5q-72 0 -108 40t-36 112q0 82 51 122t147 40h81v45q0 46 -19.5 68t-64.5 22q-37 0 -62 -17.5t-44 -49.5l-71 64q29 45 73.5 72.5t113.5 27.5q195 0 195 -184v-253h46v-97h-73zM223 77q37 0 63 21.5t26 59.5v69h-73
q-84 0 -84 -65v-22q0 -33 18 -48t50 -15zM239 576q-67 0 -106 35t-67 112l66 35l19 -40q14 -29 35 -44t53 -15t52.5 15t34.5 44l20 40l66 -35q-14 -39 -30 -66.5t-36 -45.5t-46.5 -26.5t-60.5 -8.5zM108 895l95 49l85 -187l-64 -34z" />
    <glyph glyph-name="uni1EB2" unicode="&#x1eb2;" horiz-adv-x="606" 
d="M463 0l-49 182h-225l-49 -182h-120l204 698h158l204 -698h-123zM330 474l-22 111h-14l-22 -111l-53 -191h165zM195 1098h115q45 0 63 -17.5t18 -49.5q0 -26 -9 -47t-31 -51l-33 -47l-51 26l44 105h-116v81zM304 740q-67 0 -106 35t-67 112l66 35l19 -40q14 -29 35 -44
t53 -15t52.5 15t34.5 44l20 40l66 -35q-14 -39 -30 -66.5t-36 -45.5t-46.5 -26.5t-60.5 -8.5z" />
    <glyph glyph-name="uni1EB3" unicode="&#x1eb3;" horiz-adv-x="507" 
d="M406 0q-81 0 -85 89h-12q-10 -48 -45 -74.5t-87 -26.5q-72 0 -108 40t-36 112q0 82 51 122t147 40h81v45q0 46 -19.5 68t-64.5 22q-37 0 -62 -17.5t-44 -49.5l-71 64q29 45 73.5 72.5t113.5 27.5q195 0 195 -184v-253h46v-97h-73zM223 77q37 0 63 21.5t26 59.5v69h-73
q-84 0 -84 -65v-22q0 -33 18 -48t50 -15zM239 576q-67 0 -106 35t-67 112l66 35l19 -40q14 -29 35 -44t53 -15t52.5 15t34.5 44l20 40l66 -35q-14 -39 -30 -66.5t-36 -45.5t-46.5 -26.5t-60.5 -8.5zM130 934h115q45 0 63 -17.5t18 -49.5q0 -26 -9 -47t-31 -51l-33 -47
l-51 26l44 105h-116v81z" />
    <glyph glyph-name="uni1EB4" unicode="&#x1eb4;" horiz-adv-x="606" 
d="M463 0l-49 182h-225l-49 -182h-120l204 698h158l204 -698h-123zM330 474l-22 111h-14l-22 -111l-53 -191h165zM372 947q-19 0 -38 6.5t-36 16.5q-20 11 -37.5 18.5t-31.5 7.5q-16 0 -26.5 -6.5t-24.5 -19.5l-40 52q37 59 95 59q19 0 38 -6.5t36 -16.5q20 -11 37.5 -18.5
t31.5 -7.5q16 0 26.5 6.5t24.5 19.5l40 -52q-37 -59 -95 -59zM304 740q-67 0 -106 35t-67 112l66 35l19 -40q14 -29 35 -44t53 -15t52.5 15t34.5 44l20 40l66 -35q-14 -39 -30 -66.5t-36 -45.5t-46.5 -26.5t-60.5 -8.5z" />
    <glyph glyph-name="uni1EB5" unicode="&#x1eb5;" horiz-adv-x="507" 
d="M406 0q-81 0 -85 89h-12q-10 -48 -45 -74.5t-87 -26.5q-72 0 -108 40t-36 112q0 82 51 122t147 40h81v45q0 46 -19.5 68t-64.5 22q-37 0 -62 -17.5t-44 -49.5l-71 64q29 45 73.5 72.5t113.5 27.5q195 0 195 -184v-253h46v-97h-73zM223 77q37 0 63 21.5t26 59.5v69h-73
q-84 0 -84 -65v-22q0 -33 18 -48t50 -15zM239 576q-67 0 -106 35t-67 112l66 35l19 -40q14 -29 35 -44t53 -15t52.5 15t34.5 44l20 40l66 -35q-14 -39 -30 -66.5t-36 -45.5t-46.5 -26.5t-60.5 -8.5zM307 783q-19 0 -38 6.5t-36 16.5q-20 11 -37.5 18.5t-31.5 7.5
q-16 0 -26.5 -6.5t-24.5 -19.5l-40 52q37 59 95 59q19 0 38 -6.5t36 -16.5q20 -11 37.5 -18.5t31.5 -7.5q16 0 26.5 6.5t24.5 19.5l40 -52q-37 -59 -95 -59z" />
    <glyph glyph-name="uni1EB6" unicode="&#x1eb6;" horiz-adv-x="606" 
d="M463 0l-49 182h-225l-49 -182h-120l204 698h158l204 -698h-123zM330 474l-22 111h-14l-22 -111l-53 -191h165zM304 748q-31 0 -55 7.5t-43.5 25.5t-36 48.5t-32.5 76.5l66 35l20 -40q9 -20 18 -33t18.5 -20.5t20.5 -10.5t24 -3q26 0 44.5 14t37.5 53l20 40l65 -35
q-16 -46 -32.5 -76.5t-36.5 -48.5t-44 -25.5t-54 -7.5zM304 -189q-37 0 -52.5 14t-15.5 38v27q0 24 15.5 38t52.5 14t52.5 -14t15.5 -38v-27q0 -24 -15.5 -38t-52.5 -14z" />
    <glyph glyph-name="uni1EB7" unicode="&#x1eb7;" horiz-adv-x="507" 
d="M406 0q-81 0 -85 89h-12q-10 -48 -45 -74.5t-87 -26.5q-72 0 -108 40t-36 112q0 82 51 122t147 40h81v45q0 46 -19.5 68t-64.5 22q-37 0 -62 -17.5t-44 -49.5l-71 64q29 45 73.5 72.5t113.5 27.5q195 0 195 -184v-253h46v-97h-73zM223 77q37 0 63 21.5t26 59.5v69h-73
q-84 0 -84 -65v-22q0 -33 18 -48t50 -15zM240 584q-31 0 -55 7.5t-43.5 25.5t-36 48.5t-32.5 76.5l66 35l20 -40q9 -20 18 -33t18.5 -20.5t20.5 -10.5t24 -3q26 0 44.5 14t37.5 53l20 40l65 -35q-16 -46 -32.5 -76.5t-36.5 -48.5t-44 -25.5t-54 -7.5zM238 -189
q-37 0 -52.5 14t-15.5 38v27q0 24 15.5 38t52.5 14t52.5 -14t15.5 -38v-27q0 -24 -15.5 -38t-52.5 -14z" />
    <glyph glyph-name="uni1EB8" unicode="&#x1eb8;" horiz-adv-x="544" 
d="M73 0v698h419v-109h-294v-182h257v-106h-257v-192h294v-109h-419zM282 -189q-37 0 -52.5 14t-15.5 38v27q0 24 15.5 38t52.5 14t52.5 -14t15.5 -38v-27q0 -24 -15.5 -38t-52.5 -14z" />
    <glyph glyph-name="uni1EB9" unicode="&#x1eb9;" horiz-adv-x="505" 
d="M263 -12q-51 0 -93.5 16.5t-72.5 50t-46.5 85t-16.5 121.5q0 141 56.5 207t161.5 66t161.5 -66t56.5 -207v-29h-309v-34q0 -52 29 -82t80 -30q43 0 72.5 18.5t50.5 53.5l66 -69q-29 -46 -78 -73.5t-118 -27.5zM252 441q-91 0 -91 -108v-26h182v26q0 108 -91 108z
M254 -189q-37 0 -52.5 14t-15.5 38v27q0 24 15.5 38t52.5 14t52.5 -14t15.5 -38v-27q0 -24 -15.5 -38t-52.5 -14z" />
    <glyph glyph-name="uni1EBA" unicode="&#x1eba;" horiz-adv-x="544" 
d="M73 0v698h419v-109h-294v-182h257v-106h-257v-192h294v-109h-419zM180 955h130q45 0 63 -17.5t18 -49.5q0 -26 -9.5 -46.5t-30.5 -51.5l-38 -55l-65 30l45 101h-113v89z" />
    <glyph glyph-name="uni1EBB" unicode="&#x1ebb;" horiz-adv-x="505" 
d="M263 -12q-51 0 -93.5 16.5t-72.5 50t-46.5 85t-16.5 121.5q0 141 56.5 207t161.5 66t161.5 -66t56.5 -207v-29h-309v-34q0 -52 29 -82t80 -30q43 0 72.5 18.5t50.5 53.5l66 -69q-29 -46 -78 -73.5t-118 -27.5zM252 441q-91 0 -91 -108v-26h182v26q0 108 -91 108zM151 791
h130q45 0 63 -17.5t18 -49.5q0 -26 -9.5 -46.5t-30.5 -51.5l-38 -55l-65 30l45 101h-113v89z" />
    <glyph glyph-name="uni1EBC" unicode="&#x1ebc;" horiz-adv-x="544" 
d="M73 0v698h419v-109h-294v-182h257v-106h-257v-192h294v-109h-419zM353 770q-18 0 -33 4.5t-41 18.5t-41.5 19.5t-26.5 5.5q-17 0 -27.5 -6.5t-24.5 -20.5l-44 56q17 27 42 42.5t54 15.5q18 0 33 -4.5t41 -18.5t41.5 -19.5t26.5 -5.5q17 0 27.5 6.5t24.5 20.5l44 -56
q-17 -27 -42 -42.5t-54 -15.5z" />
    <glyph glyph-name="uni1EBD" unicode="&#x1ebd;" horiz-adv-x="505" 
d="M263 -12q-51 0 -93.5 16.5t-72.5 50t-46.5 85t-16.5 121.5q0 141 56.5 207t161.5 66t161.5 -66t56.5 -207v-29h-309v-34q0 -52 29 -82t80 -30q43 0 72.5 18.5t50.5 53.5l66 -69q-29 -46 -78 -73.5t-118 -27.5zM252 441q-91 0 -91 -108v-26h182v26q0 108 -91 108zM325 606
q-18 0 -33 4.5t-41 18.5t-41.5 19.5t-26.5 5.5q-17 0 -27.5 -6.5t-24.5 -20.5l-44 56q17 27 42 42.5t54 15.5q18 0 33 -4.5t41 -18.5t41.5 -19.5t26.5 -5.5q17 0 27.5 6.5t24.5 20.5l44 -56q-17 -27 -42 -42.5t-54 -15.5z" />
    <glyph glyph-name="uni1EBE" unicode="&#x1ebe;" horiz-adv-x="544" 
d="M73 0v698h419v-109h-294v-182h257v-106h-257v-192h294v-109h-419zM447 887l-65 35l83 186l95 -50zM334 934l125 -148l-57 -49l-119 117l-120 -117l-56 49l124 148h103z" />
    <glyph glyph-name="uni1EBF" unicode="&#x1ebf;" horiz-adv-x="505" 
d="M263 -12q-51 0 -93.5 16.5t-72.5 50t-46.5 85t-16.5 121.5q0 141 56.5 207t161.5 66t161.5 -66t56.5 -207v-29h-309v-34q0 -52 29 -82t80 -30q43 0 72.5 18.5t50.5 53.5l66 -69q-29 -46 -78 -73.5t-118 -27.5zM252 441q-91 0 -91 -108v-26h182v26q0 108 -91 108zM418 723
l-65 35l83 186l95 -50zM305 770l125 -148l-57 -49l-119 117l-120 -117l-56 49l124 148h103z" />
    <glyph glyph-name="uni1EC0" unicode="&#x1ec0;" horiz-adv-x="544" 
d="M73 0v698h419v-109h-294v-182h257v-106h-257v-192h294v-109h-419zM4 1058l96 50l84 -186l-65 -35zM333 934l125 -148l-57 -49l-119 117l-120 -117l-56 49l124 148h103z" />
    <glyph glyph-name="uni1EC1" unicode="&#x1ec1;" horiz-adv-x="505" 
d="M263 -12q-51 0 -93.5 16.5t-72.5 50t-46.5 85t-16.5 121.5q0 141 56.5 207t161.5 66t161.5 -66t56.5 -207v-29h-309v-34q0 -52 29 -82t80 -30q43 0 72.5 18.5t50.5 53.5l66 -69q-29 -46 -78 -73.5t-118 -27.5zM252 441q-91 0 -91 -108v-26h182v26q0 108 -91 108zM-24 894
l96 50l84 -186l-65 -35zM305 770l125 -148l-57 -49l-119 117l-120 -117l-56 49l124 148h103z" />
    <glyph glyph-name="uni1EC2" unicode="&#x1ec2;" horiz-adv-x="544" 
d="M73 0v698h419v-109h-294v-182h257v-106h-257v-192h294v-109h-419zM322 1095h116q45 0 62.5 -17.5t17.5 -49.5q0 -26 -9 -47t-30 -51l-34 -47l-51 26l44 105h-116v81zM334 934l125 -148l-57 -49l-119 117l-120 -117l-56 49l124 148h103z" />
    <glyph glyph-name="uni1EC3" unicode="&#x1ec3;" horiz-adv-x="505" 
d="M263 -12q-51 0 -93.5 16.5t-72.5 50t-46.5 85t-16.5 121.5q0 141 56.5 207t161.5 66t161.5 -66t56.5 -207v-29h-309v-34q0 -52 29 -82t80 -30q43 0 72.5 18.5t50.5 53.5l66 -69q-29 -46 -78 -73.5t-118 -27.5zM252 441q-91 0 -91 -108v-26h182v26q0 108 -91 108zM293 931
h116q45 0 62.5 -17.5t17.5 -49.5q0 -26 -9 -47t-30 -51l-34 -47l-51 26l44 105h-116v81zM305 770l125 -148l-57 -49l-119 117l-120 -117l-56 49l124 148h103z" />
    <glyph glyph-name="uni1EC4" unicode="&#x1ec4;" horiz-adv-x="544" 
d="M73 0v698h419v-109h-294v-182h257v-106h-257v-192h294v-109h-419zM210 1089q20 0 38.5 -6t36.5 -17q20 -11 37 -18.5t31 -7.5q16 0 26.5 6.5t24.5 19.5l41 -52q-37 -59 -95 -59q-20 0 -38.5 6t-36.5 17q-20 11 -37 18.5t-31 7.5q-16 0 -26.5 -6.5t-24.5 -19.5l-41 52
q37 59 95 59zM332 925l126 -139l-55 -49l-121 108l-121 -108l-55 49l126 139h100z" />
    <glyph glyph-name="uni1EC5" unicode="&#x1ec5;" horiz-adv-x="505" 
d="M263 -12q-51 0 -93.5 16.5t-72.5 50t-46.5 85t-16.5 121.5q0 141 56.5 207t161.5 66t161.5 -66t56.5 -207v-29h-309v-34q0 -52 29 -82t80 -30q43 0 72.5 18.5t50.5 53.5l66 -69q-29 -46 -78 -73.5t-118 -27.5zM252 441q-91 0 -91 -108v-26h182v26q0 108 -91 108zM181 925
q20 0 38.5 -6t36.5 -17q20 -11 37 -18.5t31 -7.5q16 0 26.5 6.5t24.5 19.5l41 -52q-37 -59 -95 -59q-20 0 -38.5 6t-36.5 17q-20 11 -37 18.5t-31 7.5q-16 0 -26.5 -6.5t-24.5 -19.5l-41 52q37 59 95 59zM303 761l126 -139l-55 -49l-121 108l-121 -108l-55 49l126 139h100z
" />
    <glyph glyph-name="uni1EC6" unicode="&#x1ec6;" horiz-adv-x="544" 
d="M73 0v698h419v-109h-294v-182h257v-106h-257v-192h294v-109h-419zM334 949l121 -157l-61 -47l-112 118l-112 -118l-61 47l121 157h104zM282 -189q-37 0 -52.5 14t-15.5 38v27q0 24 15.5 38t52.5 14t52.5 -14t15.5 -38v-27q0 -24 -15.5 -38t-52.5 -14z" />
    <glyph glyph-name="uni1EC7" unicode="&#x1ec7;" horiz-adv-x="505" 
d="M263 -12q-51 0 -93.5 16.5t-72.5 50t-46.5 85t-16.5 121.5q0 141 56.5 207t161.5 66t161.5 -66t56.5 -207v-29h-309v-34q0 -52 29 -82t80 -30q43 0 72.5 18.5t50.5 53.5l66 -69q-29 -46 -78 -73.5t-118 -27.5zM252 441q-91 0 -91 -108v-26h182v26q0 108 -91 108zM306 787
l121 -157l-61 -47l-112 118l-112 -118l-61 47l121 157h104zM254 -189q-37 0 -52.5 14t-15.5 38v27q0 24 15.5 38t52.5 14t52.5 -14t15.5 -38v-27q0 -24 -15.5 -38t-52.5 -14z" />
    <glyph glyph-name="uni1EC8" unicode="&#x1ec8;" horiz-adv-x="387" 
d="M48 0v99h83v500h-83v99h291v-99h-83v-500h83v-99h-291zM92 955h130q45 0 63 -17.5t18 -49.5q0 -26 -9.5 -46.5t-30.5 -51.5l-38 -55l-65 30l45 101h-113v89z" />
    <glyph glyph-name="uni1EC9" unicode="&#x1ec9;" horiz-adv-x="254" 
d="M67 0v522h121v-522h-121zM25 791h130q45 0 63 -17.5t18 -49.5q0 -26 -9.5 -46.5t-30.5 -51.5l-38 -55l-65 30l45 101h-113v89z" />
    <glyph glyph-name="uni1ECA" unicode="&#x1eca;" horiz-adv-x="387" 
d="M48 0v99h83v500h-83v99h291v-99h-83v-500h83v-99h-291zM194 -189q-37 0 -52.5 14t-15.5 38v27q0 24 15.5 38t52.5 14t52.5 -14t15.5 -38v-27q0 -24 -15.5 -38t-52.5 -14z" />
    <glyph glyph-name="uni1ECB" unicode="&#x1ecb;" horiz-adv-x="252" 
d="M126 604q-38 0 -55 16.5t-17 44.5v20q0 28 17 44.5t55 16.5t55 -16.5t17 -44.5v-20q0 -28 -17 -44.5t-55 -16.5zM66 522h121v-522h-121v522zM126 -189q-37 0 -52.5 14t-15.5 38v27q0 24 15.5 38t52.5 14t52.5 -14t15.5 -38v-27q0 -24 -15.5 -38t-52.5 -14z" />
    <glyph glyph-name="uni1ECC" unicode="&#x1ecc;" horiz-adv-x="642" 
d="M321 -12q-63 0 -113.5 20.5t-86 64t-55 112t-19.5 164.5t19.5 164.5t55 112t86 64t113.5 20.5t113.5 -20.5t86 -64t55 -112t19.5 -164.5t-19.5 -164.5t-55 -112t-86 -64t-113.5 -20.5zM321 98q68 0 105 42.5t37 121.5v174q0 79 -37 121.5t-105 42.5t-105 -42.5
t-37 -121.5v-174q0 -79 37 -121.5t105 -42.5zM320 -189q-37 0 -52.5 14t-15.5 38v27q0 24 15.5 38t52.5 14t52.5 -14t15.5 -38v-27q0 -24 -15.5 -38t-52.5 -14z" />
    <glyph glyph-name="uni1ECD" unicode="&#x1ecd;" horiz-adv-x="506" 
d="M253 -12q-104 0 -161.5 66t-57.5 207t57.5 207t161.5 66t161.5 -66t57.5 -207t-57.5 -207t-161.5 -66zM253 86q92 0 92 108v134q0 108 -92 108t-92 -108v-134q0 -108 92 -108zM253 -189q-37 0 -52.5 14t-15.5 38v27q0 24 15.5 38t52.5 14t52.5 -14t15.5 -38v-27
q0 -24 -15.5 -38t-52.5 -14z" />
    <glyph glyph-name="uni1ECE" unicode="&#x1ece;" horiz-adv-x="642" 
d="M321 -12q-63 0 -113.5 20.5t-86 64t-55 112t-19.5 164.5t19.5 164.5t55 112t86 64t113.5 20.5t113.5 -20.5t86 -64t55 -112t19.5 -164.5t-19.5 -164.5t-55 -112t-86 -64t-113.5 -20.5zM321 98q68 0 105 42.5t37 121.5v174q0 79 -37 121.5t-105 42.5t-105 -42.5
t-37 -121.5v-174q0 -79 37 -121.5t105 -42.5zM218 955h130q45 0 63 -17.5t18 -49.5q0 -26 -9.5 -46.5t-30.5 -51.5l-38 -55l-65 30l45 101h-113v89z" />
    <glyph glyph-name="uni1ECF" unicode="&#x1ecf;" horiz-adv-x="506" 
d="M253 -12q-104 0 -161.5 66t-57.5 207t57.5 207t161.5 66t161.5 -66t57.5 -207t-57.5 -207t-161.5 -66zM253 86q92 0 92 108v134q0 108 -92 108t-92 -108v-134q0 -108 92 -108zM151 791h130q45 0 63 -17.5t18 -49.5q0 -26 -9.5 -46.5t-30.5 -51.5l-38 -55l-65 30l45 101
h-113v89z" />
    <glyph glyph-name="uni1ED0" unicode="&#x1ed0;" horiz-adv-x="642" 
d="M321 -12q-63 0 -113.5 20.5t-86 64t-55 112t-19.5 164.5t19.5 164.5t55 112t86 64t113.5 20.5t113.5 -20.5t86 -64t55 -112t19.5 -164.5t-19.5 -164.5t-55 -112t-86 -64t-113.5 -20.5zM321 98q68 0 105 42.5t37 121.5v174q0 79 -37 121.5t-105 42.5t-105 -42.5
t-37 -121.5v-174q0 -79 37 -121.5t105 -42.5zM485 887l-65 35l83 186l95 -50zM372 934l125 -148l-57 -49l-119 117l-120 -117l-56 49l124 148h103z" />
    <glyph glyph-name="uni1ED1" unicode="&#x1ed1;" horiz-adv-x="506" 
d="M253 -12q-104 0 -161.5 66t-57.5 207t57.5 207t161.5 66t161.5 -66t57.5 -207t-57.5 -207t-161.5 -66zM253 86q92 0 92 108v134q0 108 -92 108t-92 -108v-134q0 -108 92 -108zM418 723l-65 35l83 186l95 -50zM305 770l125 -148l-57 -49l-119 117l-120 -117l-56 49
l124 148h103z" />
    <glyph glyph-name="uni1ED2" unicode="&#x1ed2;" horiz-adv-x="642" 
d="M321 -12q-63 0 -113.5 20.5t-86 64t-55 112t-19.5 164.5t19.5 164.5t55 112t86 64t113.5 20.5t113.5 -20.5t86 -64t55 -112t19.5 -164.5t-19.5 -164.5t-55 -112t-86 -64t-113.5 -20.5zM321 98q68 0 105 42.5t37 121.5v174q0 79 -37 121.5t-105 42.5t-105 -42.5
t-37 -121.5v-174q0 -79 37 -121.5t105 -42.5zM42 1058l96 50l84 -186l-65 -35zM371 934l125 -148l-57 -49l-119 117l-120 -117l-56 49l124 148h103z" />
    <glyph glyph-name="uni1ED3" unicode="&#x1ed3;" horiz-adv-x="506" 
d="M253 -12q-104 0 -161.5 66t-57.5 207t57.5 207t161.5 66t161.5 -66t57.5 -207t-57.5 -207t-161.5 -66zM253 86q92 0 92 108v134q0 108 -92 108t-92 -108v-134q0 -108 92 -108zM-24 894l96 50l84 -186l-65 -35zM305 770l125 -148l-57 -49l-119 117l-120 -117l-56 49
l124 148h103z" />
    <glyph glyph-name="uni1ED4" unicode="&#x1ed4;" horiz-adv-x="642" 
d="M321 -12q-63 0 -113.5 20.5t-86 64t-55 112t-19.5 164.5t19.5 164.5t55 112t86 64t113.5 20.5t113.5 -20.5t86 -64t55 -112t19.5 -164.5t-19.5 -164.5t-55 -112t-86 -64t-113.5 -20.5zM321 98q68 0 105 42.5t37 121.5v174q0 79 -37 121.5t-105 42.5t-105 -42.5
t-37 -121.5v-174q0 -79 37 -121.5t105 -42.5zM360 1095h116q45 0 62.5 -17.5t17.5 -49.5q0 -26 -9 -47t-30 -51l-34 -47l-51 26l44 105h-116v81zM372 934l125 -148l-57 -49l-119 117l-120 -117l-56 49l124 148h103z" />
    <glyph glyph-name="uni1ED5" unicode="&#x1ed5;" horiz-adv-x="506" 
d="M253 -12q-104 0 -161.5 66t-57.5 207t57.5 207t161.5 66t161.5 -66t57.5 -207t-57.5 -207t-161.5 -66zM253 86q92 0 92 108v134q0 108 -92 108t-92 -108v-134q0 -108 92 -108zM293 931h116q45 0 62.5 -17.5t17.5 -49.5q0 -26 -9 -47t-30 -51l-34 -47l-51 26l44 105h-116
v81zM305 770l125 -148l-57 -49l-119 117l-120 -117l-56 49l124 148h103z" />
    <glyph glyph-name="uni1ED6" unicode="&#x1ed6;" horiz-adv-x="642" 
d="M321 -12q-63 0 -113.5 20.5t-86 64t-55 112t-19.5 164.5t19.5 164.5t55 112t86 64t113.5 20.5t113.5 -20.5t86 -64t55 -112t19.5 -164.5t-19.5 -164.5t-55 -112t-86 -64t-113.5 -20.5zM321 98q68 0 105 42.5t37 121.5v174q0 79 -37 121.5t-105 42.5t-105 -42.5
t-37 -121.5v-174q0 -79 37 -121.5t105 -42.5zM248 1089q20 0 38.5 -6t36.5 -17q20 -11 37 -18.5t31 -7.5q16 0 26.5 6.5t24.5 19.5l41 -52q-37 -59 -95 -59q-20 0 -38.5 6t-36.5 17q-20 11 -37 18.5t-31 7.5q-16 0 -26.5 -6.5t-24.5 -19.5l-41 52q37 59 95 59zM370 925
l126 -139l-55 -49l-121 108l-121 -108l-55 49l126 139h100z" />
    <glyph glyph-name="uni1ED7" unicode="&#x1ed7;" horiz-adv-x="506" 
d="M253 -12q-104 0 -161.5 66t-57.5 207t57.5 207t161.5 66t161.5 -66t57.5 -207t-57.5 -207t-161.5 -66zM253 86q92 0 92 108v134q0 108 -92 108t-92 -108v-134q0 -108 92 -108zM181 925q20 0 38.5 -6t36.5 -17q20 -11 37 -18.5t31 -7.5q16 0 26.5 6.5t24.5 19.5l41 -52
q-37 -59 -95 -59q-20 0 -38.5 6t-36.5 17q-20 11 -37 18.5t-31 7.5q-16 0 -26.5 -6.5t-24.5 -19.5l-41 52q37 59 95 59zM303 761l126 -139l-55 -49l-121 108l-121 -108l-55 49l126 139h100z" />
    <glyph glyph-name="uni1ED8" unicode="&#x1ed8;" horiz-adv-x="642" 
d="M321 -12q-63 0 -113.5 20.5t-86 64t-55 112t-19.5 164.5t19.5 164.5t55 112t86 64t113.5 20.5t113.5 -20.5t86 -64t55 -112t19.5 -164.5t-19.5 -164.5t-55 -112t-86 -64t-113.5 -20.5zM321 98q68 0 105 42.5t37 121.5v174q0 79 -37 121.5t-105 42.5t-105 -42.5
t-37 -121.5v-174q0 -79 37 -121.5t105 -42.5zM372 949l121 -157l-61 -47l-112 118l-112 -118l-61 47l121 157h104zM320 -189q-37 0 -52.5 14t-15.5 38v27q0 24 15.5 38t52.5 14t52.5 -14t15.5 -38v-27q0 -24 -15.5 -38t-52.5 -14z" />
    <glyph glyph-name="uni1ED9" unicode="&#x1ed9;" horiz-adv-x="506" 
d="M253 -12q-104 0 -161.5 66t-57.5 207t57.5 207t161.5 66t161.5 -66t57.5 -207t-57.5 -207t-161.5 -66zM253 86q92 0 92 108v134q0 108 -92 108t-92 -108v-134q0 -108 92 -108zM306 787l121 -157l-61 -47l-112 118l-112 -118l-61 47l121 157h104zM253 -189q-37 0 -52.5 14
t-15.5 38v27q0 24 15.5 38t52.5 14t52.5 -14t15.5 -38v-27q0 -24 -15.5 -38t-52.5 -14z" />
    <glyph glyph-name="uni1EDA" unicode="&#x1eda;" horiz-adv-x="641" 
d="M616 804v-104q0 -23 -3.5 -39t-13 -25.5t-26 -13.5t-41.5 -4h-95v-12q84 -9 121 -70t37 -187q0 -96 -19.5 -164.5t-55 -112t-86 -64t-113.5 -20.5t-113.5 20.5t-86 64t-55 112t-19.5 164.5t19.5 164.5t55 112t86 64t113.5 20.5q48 0 89 -12h107v106h99zM321 98
q68 0 105 42.5t37 121.5v174q0 79 -37 121.5t-105 42.5t-105 -42.5t-37 -121.5v-174q0 -79 37 -121.5t105 -42.5zM333 744l-73 35l88 189l104 -51z" />
    <glyph glyph-name="uni1EDB" unicode="&#x1edb;" horiz-adv-x="508" 
d="M504 628v-104q0 -34 -18.5 -52.5t-64.5 -18.5h-73v-12q60 -3 92.5 -50t32.5 -130q0 -141 -57.5 -207t-161.5 -66t-161.5 66t-57.5 207t57.5 207t161.5 66q45 0 81 -12h70v106h99zM254 86q92 0 92 108v134q0 108 -92 108t-92 -108v-134q0 -108 92 -108zM268 581l-73 35
l88 189l104 -51z" />
    <glyph glyph-name="uni1EDC" unicode="&#x1edc;" horiz-adv-x="641" 
d="M616 804v-104q0 -23 -3.5 -39t-13 -25.5t-26 -13.5t-41.5 -4h-95v-12q84 -9 121 -70t37 -187q0 -96 -19.5 -164.5t-55 -112t-86 -64t-113.5 -20.5t-113.5 20.5t-86 64t-55 112t-19.5 164.5t19.5 164.5t55 112t86 64t113.5 20.5q48 0 89 -12h107v106h99zM321 98
q68 0 105 42.5t37 121.5v174q0 79 -37 121.5t-105 42.5t-105 -42.5t-37 -121.5v-174q0 -79 37 -121.5t105 -42.5zM188 917l104 51l88 -189l-73 -35z" />
    <glyph glyph-name="uni1EDD" unicode="&#x1edd;" horiz-adv-x="508" 
d="M504 628v-104q0 -34 -18.5 -52.5t-64.5 -18.5h-73v-12q60 -3 92.5 -50t32.5 -130q0 -141 -57.5 -207t-161.5 -66t-161.5 66t-57.5 207t57.5 207t161.5 66q45 0 81 -12h70v106h99zM254 86q92 0 92 108v134q0 108 -92 108t-92 -108v-134q0 -108 92 -108zM123 754l104 51
l88 -189l-73 -35z" />
    <glyph glyph-name="uni1EDE" unicode="&#x1ede;" horiz-adv-x="641" 
d="M616 804v-104q0 -23 -3.5 -39t-13 -25.5t-26 -13.5t-41.5 -4h-95v-12q84 -9 121 -70t37 -187q0 -96 -19.5 -164.5t-55 -112t-86 -64t-113.5 -20.5t-113.5 20.5t-86 64t-55 112t-19.5 164.5t19.5 164.5t55 112t86 64t113.5 20.5q48 0 89 -12h107v106h99zM321 98
q68 0 105 42.5t37 121.5v174q0 79 -37 121.5t-105 42.5t-105 -42.5t-37 -121.5v-174q0 -79 37 -121.5t105 -42.5zM218 955h130q45 0 63 -17.5t18 -49.5q0 -26 -9.5 -46.5t-30.5 -51.5l-38 -55l-65 30l45 101h-113v89z" />
    <glyph glyph-name="uni1EDF" unicode="&#x1edf;" horiz-adv-x="508" 
d="M504 628v-104q0 -34 -18.5 -52.5t-64.5 -18.5h-73v-12q60 -3 92.5 -50t32.5 -130q0 -141 -57.5 -207t-161.5 -66t-161.5 66t-57.5 207t57.5 207t161.5 66q45 0 81 -12h70v106h99zM254 86q92 0 92 108v134q0 108 -92 108t-92 -108v-134q0 -108 92 -108zM152 791h130
q45 0 63 -17.5t18 -49.5q0 -26 -9.5 -46.5t-30.5 -51.5l-38 -55l-65 30l45 101h-113v89z" />
    <glyph glyph-name="uni1EE0" unicode="&#x1ee0;" horiz-adv-x="641" 
d="M616 804v-104q0 -23 -3.5 -39t-13 -25.5t-26 -13.5t-41.5 -4h-95v-12q84 -9 121 -70t37 -187q0 -96 -19.5 -164.5t-55 -112t-86 -64t-113.5 -20.5t-113.5 20.5t-86 64t-55 112t-19.5 164.5t19.5 164.5t55 112t86 64t113.5 20.5q48 0 89 -12h107v106h99zM321 98
q68 0 105 42.5t37 121.5v174q0 79 -37 121.5t-105 42.5t-105 -42.5t-37 -121.5v-174q0 -79 37 -121.5t105 -42.5zM379 773q-17 0 -33 6t-31 15t-29 14.5t-24 5.5q-23 0 -44 -22l-42 56q18 29 38 41.5t47 12.5q17 0 33 -6t31 -15t29.5 -14.5t23.5 -5.5q13 0 22.5 5t21.5 17
l42 -56q-18 -29 -38 -41.5t-47 -12.5z" />
    <glyph glyph-name="uni1EE1" unicode="&#x1ee1;" horiz-adv-x="508" 
d="M504 628v-104q0 -34 -18.5 -52.5t-64.5 -18.5h-73v-12q60 -3 92.5 -50t32.5 -130q0 -141 -57.5 -207t-161.5 -66t-161.5 66t-57.5 207t57.5 207t161.5 66q45 0 81 -12h70v106h99zM254 86q92 0 92 108v134q0 108 -92 108t-92 -108v-134q0 -108 92 -108zM305 609
q-17 0 -33 6t-31 15t-29 14.5t-24 5.5q-23 0 -44 -22l-42 56q18 29 38 41.5t47 12.5q17 0 33 -6t31 -15t29.5 -14.5t23.5 -5.5q13 0 22.5 5t21.5 17l42 -56q-18 -29 -38 -41.5t-47 -12.5z" />
    <glyph glyph-name="uni1EE2" unicode="&#x1ee2;" horiz-adv-x="641" 
d="M616 804v-104q0 -23 -3.5 -39t-13 -25.5t-26 -13.5t-41.5 -4h-95v-12q84 -9 121 -70t37 -187q0 -96 -19.5 -164.5t-55 -112t-86 -64t-113.5 -20.5t-113.5 20.5t-86 64t-55 112t-19.5 164.5t19.5 164.5t55 112t86 64t113.5 20.5q48 0 89 -12h107v106h99zM321 98
q68 0 105 42.5t37 121.5v174q0 79 -37 121.5t-105 42.5t-105 -42.5t-37 -121.5v-174q0 -79 37 -121.5t105 -42.5zM320 -189q-37 0 -52.5 14t-15.5 38v27q0 24 15.5 38t52.5 14t52.5 -14t15.5 -38v-27q0 -24 -15.5 -38t-52.5 -14z" />
    <glyph glyph-name="uni1EE3" unicode="&#x1ee3;" horiz-adv-x="508" 
d="M504 628v-104q0 -34 -18.5 -52.5t-64.5 -18.5h-73v-12q60 -3 92.5 -50t32.5 -130q0 -141 -57.5 -207t-161.5 -66t-161.5 66t-57.5 207t57.5 207t161.5 66q45 0 81 -12h70v106h99zM254 86q92 0 92 108v134q0 108 -92 108t-92 -108v-134q0 -108 92 -108zM254 -189
q-37 0 -52.5 14t-15.5 38v27q0 24 15.5 38t52.5 14t52.5 -14t15.5 -38v-27q0 -24 -15.5 -38t-52.5 -14z" />
    <glyph glyph-name="uni1EE4" unicode="&#x1ee4;" horiz-adv-x="624" 
d="M193 698v-453q0 -77 25.5 -113t93.5 -36t93.5 36t25.5 113v453h125v-435q0 -72 -12.5 -124t-41.5 -85.5t-75.5 -49.5t-114.5 -16t-114.5 16t-75.5 49.5t-41.5 85.5t-12.5 124v435h125zM312 -189q-37 0 -52.5 14t-15.5 38v27q0 24 15.5 38t52.5 14t52.5 -14t15.5 -38v-27
q0 -24 -15.5 -38t-52.5 -14z" />
    <glyph glyph-name="uni1EE5" unicode="&#x1ee5;" horiz-adv-x="533" 
d="M346 88h-14q-30 -100 -127 -100q-70 0 -107.5 47.5t-37.5 136.5v350h121v-330q0 -103 76 -103q37 0 63 22t26 61v350h121v-522h-121v88zM262 -189q-37 0 -52.5 14t-15.5 38v27q0 24 15.5 38t52.5 14t52.5 -14t15.5 -38v-27q0 -24 -15.5 -38t-52.5 -14z" />
    <glyph glyph-name="uni1EE6" unicode="&#x1ee6;" horiz-adv-x="624" 
d="M193 698v-453q0 -77 25.5 -113t93.5 -36t93.5 36t25.5 113v453h125v-435q0 -72 -12.5 -124t-41.5 -85.5t-75.5 -49.5t-114.5 -16t-114.5 16t-75.5 49.5t-41.5 85.5t-12.5 124v435h125zM210 955h130q45 0 63 -17.5t18 -49.5q0 -26 -9.5 -46.5t-30.5 -51.5l-38 -55l-65 30
l45 101h-113v89z" />
    <glyph glyph-name="uni1EE7" unicode="&#x1ee7;" horiz-adv-x="533" 
d="M346 88h-14q-30 -100 -127 -100q-70 0 -107.5 47.5t-37.5 136.5v350h121v-330q0 -103 76 -103q37 0 63 22t26 61v350h121v-522h-121v88zM161 791h130q45 0 63 -17.5t18 -49.5q0 -26 -9.5 -46.5t-30.5 -51.5l-38 -55l-65 30l45 101h-113v89z" />
    <glyph glyph-name="uni1EE8" unicode="&#x1ee8;" horiz-adv-x="634" 
d="M556 263q0 -72 -12.5 -124t-41.5 -85.5t-75.5 -49.5t-114.5 -16t-114.5 16t-75.5 49.5t-41.5 85.5t-12.5 124v435h125v-453q0 -76 25.5 -112t93.5 -36t93.5 36t25.5 112v453h103v106h99v-104q0 -42 -15 -59t-59 -18h-3v-360v0zM325 744l-73 35l88 189l104 -51z" />
    <glyph glyph-name="uni1EE9" unicode="&#x1ee9;" horiz-adv-x="543" 
d="M332 88q-30 -100 -127 -100q-70 0 -107.5 47.5t-37.5 136.5v350h121v-330q0 -103 76 -103q37 0 63 22t26 61v350h100v106h99v-104q0 -41 -15 -58.5t-59 -18.5h-4v-447h-121v88h-14v0zM277 581l-73 35l88 189l104 -51z" />
    <glyph glyph-name="uni1EEA" unicode="&#x1eea;" horiz-adv-x="634" 
d="M556 263q0 -72 -12.5 -124t-41.5 -85.5t-75.5 -49.5t-114.5 -16t-114.5 16t-75.5 49.5t-41.5 85.5t-12.5 124v435h125v-453q0 -76 25.5 -112t93.5 -36t93.5 36t25.5 112v453h103v106h99v-104q0 -42 -15 -59t-59 -18h-3v-360v0zM180 917l104 51l88 -189l-73 -35z" />
    <glyph glyph-name="uni1EEB" unicode="&#x1eeb;" horiz-adv-x="543" 
d="M332 88q-30 -100 -127 -100q-70 0 -107.5 47.5t-37.5 136.5v350h121v-330q0 -103 76 -103q37 0 63 22t26 61v350h100v106h99v-104q0 -41 -15 -58.5t-59 -18.5h-4v-447h-121v88h-14v0zM132 754l104 51l88 -189l-73 -35z" />
    <glyph glyph-name="uni1EEC" unicode="&#x1eec;" horiz-adv-x="634" 
d="M556 263q0 -72 -12.5 -124t-41.5 -85.5t-75.5 -49.5t-114.5 -16t-114.5 16t-75.5 49.5t-41.5 85.5t-12.5 124v435h125v-453q0 -76 25.5 -112t93.5 -36t93.5 36t25.5 112v453h103v106h99v-104q0 -42 -15 -59t-59 -18h-3v-360v0zM210 955h130q45 0 63 -17.5t18 -49.5
q0 -26 -9.5 -46.5t-30.5 -51.5l-38 -55l-65 30l45 101h-113v89z" />
    <glyph glyph-name="uni1EED" unicode="&#x1eed;" horiz-adv-x="543" 
d="M332 88q-30 -100 -127 -100q-70 0 -107.5 47.5t-37.5 136.5v350h121v-330q0 -103 76 -103q37 0 63 22t26 61v350h100v106h99v-104q0 -41 -15 -58.5t-59 -18.5h-4v-447h-121v88h-14v0zM161 791h130q45 0 63 -17.5t18 -49.5q0 -26 -9.5 -46.5t-30.5 -51.5l-38 -55l-65 30
l45 101h-113v89z" />
    <glyph glyph-name="uni1EEE" unicode="&#x1eee;" horiz-adv-x="634" 
d="M556 263q0 -72 -12.5 -124t-41.5 -85.5t-75.5 -49.5t-114.5 -16t-114.5 16t-75.5 49.5t-41.5 85.5t-12.5 124v435h125v-453q0 -76 25.5 -112t93.5 -36t93.5 36t25.5 112v453h103v106h99v-104q0 -42 -15 -59t-59 -18h-3v-360v0zM371 773q-17 0 -33 6t-31 15t-29 14.5
t-24 5.5q-23 0 -44 -22l-42 56q18 29 38 41.5t47 12.5q17 0 33 -6t31 -15t29.5 -14.5t23.5 -5.5q13 0 22.5 5t21.5 17l42 -56q-18 -29 -38 -41.5t-47 -12.5z" />
    <glyph glyph-name="uni1EEF" unicode="&#x1eef;" horiz-adv-x="543" 
d="M332 88q-30 -100 -127 -100q-70 0 -107.5 47.5t-37.5 136.5v350h121v-330q0 -103 76 -103q37 0 63 22t26 61v350h100v106h99v-104q0 -41 -15 -58.5t-59 -18.5h-4v-447h-121v88h-14v0zM323 609q-17 0 -33 6t-31 15t-29 14.5t-24 5.5q-23 0 -44 -22l-42 56q18 29 38 41.5
t47 12.5q17 0 33 -6t31 -15t29.5 -14.5t23.5 -5.5q13 0 22.5 5t21.5 17l42 -56q-18 -29 -38 -41.5t-47 -12.5z" />
    <glyph glyph-name="uni1EF0" unicode="&#x1ef0;" horiz-adv-x="634" 
d="M556 263q0 -72 -12.5 -124t-41.5 -85.5t-75.5 -49.5t-114.5 -16t-114.5 16t-75.5 49.5t-41.5 85.5t-12.5 124v435h125v-453q0 -76 25.5 -112t93.5 -36t93.5 36t25.5 112v453h103v106h99v-104q0 -42 -15 -59t-59 -18h-3v-360v0zM312 -189q-37 0 -52.5 14t-15.5 38v27
q0 24 15.5 38t52.5 14t52.5 -14t15.5 -38v-27q0 -24 -15.5 -38t-52.5 -14z" />
    <glyph glyph-name="uni1EF1" unicode="&#x1ef1;" horiz-adv-x="543" 
d="M332 88q-30 -100 -127 -100q-70 0 -107.5 47.5t-37.5 136.5v350h121v-330q0 -103 76 -103q37 0 63 22t26 61v350h100v106h99v-104q0 -41 -15 -58.5t-59 -18.5h-4v-447h-121v88h-14v0zM262 -189q-37 0 -52.5 14t-15.5 38v27q0 24 15.5 38t52.5 14t52.5 -14t15.5 -38v-27
q0 -24 -15.5 -38t-52.5 -14z" />
    <glyph glyph-name="Ygrave" unicode="&#x1ef2;" horiz-adv-x="566" 
d="M221 0v267l-214 431h137l135 -300h14l132 300h134l-213 -431v-267h-125zM152 917l104 51l88 -189l-73 -35z" />
    <glyph glyph-name="ygrave" unicode="&#x1ef3;" horiz-adv-x="483" 
d="M353 522h121l-199 -631q-17 -53 -48 -72t-87 -19h-82v97h103l21 74l-174 551h123l78 -282l28 -137h12l28 138zM111 754l104 51l88 -189l-73 -35z" />
    <glyph glyph-name="uni1EF4" unicode="&#x1ef4;" horiz-adv-x="566" 
d="M221 0v267l-214 431h137l135 -300h14l132 300h134l-213 -431v-267h-125zM284 -189q-37 0 -52.5 14t-15.5 38v27q0 24 15.5 38t52.5 14t52.5 -14t15.5 -38v-27q0 -24 -15.5 -38t-52.5 -14z" />
    <glyph glyph-name="uni1EF5" unicode="&#x1ef5;" horiz-adv-x="483" 
d="M353 522h121l-199 -631q-17 -53 -48 -72t-87 -19h-82v97h103l21 74l-174 551h123l78 -282l28 -137h12l28 138zM383 -189q-37 0 -52.5 14t-15.5 38v27q0 24 15.5 38t52.5 14t52.5 -14t15.5 -38v-27q0 -24 -15.5 -38t-52.5 -14z" />
    <glyph glyph-name="uni1EF6" unicode="&#x1ef6;" horiz-adv-x="566" 
d="M221 0v267l-214 431h137l135 -300h14l132 300h134l-213 -431v-267h-125zM182 955h130q45 0 63 -17.5t18 -49.5q0 -26 -9.5 -46.5t-30.5 -51.5l-38 -55l-65 30l45 101h-113v89z" />
    <glyph glyph-name="uni1EF7" unicode="&#x1ef7;" horiz-adv-x="483" 
d="M353 522h121l-199 -631q-17 -53 -48 -72t-87 -19h-82v97h103l21 74l-174 551h123l78 -282l28 -137h12l28 138zM140 791h130q45 0 63 -17.5t18 -49.5q0 -26 -9.5 -46.5t-30.5 -51.5l-38 -55l-65 30l45 101h-113v89z" />
    <glyph glyph-name="uni1EF8" unicode="&#x1ef8;" horiz-adv-x="566" 
d="M221 0v267l-214 431h137l135 -300h14l132 300h134l-213 -431v-267h-125zM355 770q-18 0 -33 4.5t-41 18.5t-41.5 19.5t-26.5 5.5q-17 0 -27.5 -6.5t-24.5 -20.5l-44 56q17 27 42 42.5t54 15.5q18 0 33 -4.5t41 -18.5t41.5 -19.5t26.5 -5.5q17 0 27.5 6.5t24.5 20.5
l44 -56q-17 -27 -42 -42.5t-54 -15.5z" />
    <glyph glyph-name="uni1EF9" unicode="&#x1ef9;" horiz-adv-x="483" 
d="M353 522h121l-199 -631q-17 -53 -48 -72t-87 -19h-82v97h103l21 74l-174 551h123l78 -282l28 -137h12l28 138zM314 606q-18 0 -33 4.5t-41 18.5t-41.5 19.5t-26.5 5.5q-17 0 -27.5 -6.5t-24.5 -20.5l-44 56q17 27 42 42.5t54 15.5q18 0 33 -4.5t41 -18.5t41.5 -19.5
t26.5 -5.5q17 0 27.5 6.5t24.5 20.5l44 -56q-17 -27 -42 -42.5t-54 -15.5z" />
    <glyph glyph-name="endash" unicode="&#x2013;" horiz-adv-x="528" 
d="M32 253v102h464v-102h-464z" />
    <glyph glyph-name="emdash" unicode="&#x2014;" horiz-adv-x="702" 
d="M32 253v102h638v-102h-638z" />
    <glyph glyph-name="quoteleft" unicode="&#x2018;" horiz-adv-x="269" 
d="M134 463q-38 0 -56 17.5t-18 48.5v23q0 52 26 102.5t70 85.5h79q-31 -31 -51.5 -60.5t-30.5 -65.5q55 -9 55 -62v-23q0 -31 -18 -48.5t-56 -17.5z" />
    <glyph glyph-name="quoteright" unicode="&#x2019;" horiz-adv-x="269" 
d="M135 748q38 0 56 -17.5t18 -48.5v-23q0 -52 -26 -102.5t-70 -85.5h-79q31 31 51.5 60.5t30.5 65.5q-55 9 -55 62v23q0 31 18 48.5t56 17.5z" />
    <glyph glyph-name="quotesinglbase" unicode="&#x201a;" horiz-adv-x="269" 
d="M135 160q38 0 56 -17.5t18 -48.5v-23q0 -52 -26 -102.5t-70 -85.5h-79q31 31 51.5 60.5t30.5 65.5q-55 9 -55 62v23q0 31 18 48.5t56 17.5z" />
    <glyph glyph-name="quotedblleft" unicode="&#x201c;" horiz-adv-x="473" 
d="M134 463q-38 0 -56 17.5t-18 48.5v23q0 52 26 102.5t70 85.5h79q-31 -31 -51.5 -60.5t-30.5 -65.5q55 -9 55 -62v-23q0 -31 -18 -48.5t-56 -17.5zM338 463q-38 0 -56 17.5t-18 48.5v23q0 52 26 102.5t70 85.5h79q-31 -31 -51.5 -60.5t-30.5 -65.5q55 -9 55 -62v-23
q0 -31 -18 -48.5t-56 -17.5z" />
    <glyph glyph-name="quotedblright" unicode="&#x201d;" horiz-adv-x="474" 
d="M133 748q38 0 56 -17.5t18 -48.5v-23q0 -52 -26 -102.5t-70 -85.5h-79q31 31 51.5 60.5t30.5 65.5q-55 9 -55 62v23q0 31 18 48.5t56 17.5zM337 748q38 0 56 -17.5t18 -48.5v-23q0 -52 -26 -102.5t-70 -85.5h-79q31 31 51.5 60.5t30.5 65.5q-55 9 -55 62v23q0 31 18 48.5
t56 17.5z" />
    <glyph glyph-name="quotedblbase" unicode="&#x201e;" horiz-adv-x="471" 
d="M133 160q38 0 56 -17.5t18 -48.5v-23q0 -52 -26 -102.5t-70 -85.5h-79q31 31 51.5 60.5t30.5 65.5q-55 9 -55 62v23q0 31 18 48.5t56 17.5zM337 160q38 0 56 -17.5t18 -48.5v-23q0 -52 -26 -102.5t-70 -85.5h-79q31 31 51.5 60.5t30.5 65.5q-55 9 -55 62v23q0 31 18 48.5
t56 17.5z" />
    <glyph glyph-name="dagger" unicode="&#x2020;" horiz-adv-x="474" 
d="M186 -200v628h-158v88h158v224h102v-224h158v-88h-158v-628h-102z" />
    <glyph glyph-name="daggerdbl" unicode="&#x2021;" horiz-adv-x="474" 
d="M186 -200v224h-158v88h158v316h-158v88h158v224h102v-224h158v-88h-158v-316h158v-88h-158v-224h-102z" />
    <glyph glyph-name="bullet" unicode="&#x2022;" horiz-adv-x="380" 
d="M190 168q-69 0 -101.5 28.5t-32.5 79.5v50q0 51 32.5 79.5t101.5 28.5t101.5 -28.5t32.5 -79.5v-50q0 -51 -32.5 -79.5t-101.5 -28.5z" />
    <glyph glyph-name="ellipsis" unicode="&#x2026;" horiz-adv-x="790" 
d="M137 -11q-38 0 -56.5 17.5t-18.5 48.5v24q0 31 18.5 48.5t56.5 17.5t56.5 -17.5t18.5 -48.5v-24q0 -31 -18.5 -48.5t-56.5 -17.5zM395 -11q-38 0 -56.5 17.5t-18.5 48.5v24q0 31 18.5 48.5t56.5 17.5t56.5 -17.5t18.5 -48.5v-24q0 -31 -18.5 -48.5t-56.5 -17.5zM653 -11
q-38 0 -56.5 17.5t-18.5 48.5v24q0 31 18.5 48.5t56.5 17.5t56.5 -17.5t18.5 -48.5v-24q0 -31 -18.5 -48.5t-56.5 -17.5z" />
    <glyph glyph-name="perthousand" unicode="&#x2030;" horiz-adv-x="1232" 
d="M165 0l434 698h106l-434 -698h-106zM207 314q-77 0 -117.5 46.5t-40.5 151.5t40.5 151.5t117.5 46.5q76 0 117 -46.5t41 -151.5t-41 -151.5t-117 -46.5zM207 383q54 0 54 76v106q0 76 -54 76t-54 -76v-106q0 -76 54 -76zM663 -12q-77 0 -117.5 46.5t-40.5 151.5
t40.5 151.5t117.5 46.5q76 0 117 -46.5t41 -151.5t-41 -151.5t-117 -46.5zM663 57q54 0 54 76v106q0 76 -54 76t-54 -76v-106q0 -76 54 -76zM1025 -12q-77 0 -117.5 46.5t-40.5 151.5t40.5 151.5t117.5 46.5q76 0 117 -46.5t41 -151.5t-41 -151.5t-117 -46.5zM1025 57
q54 0 54 76v106q0 76 -54 76t-54 -76v-106q0 -76 54 -76z" />
    <glyph glyph-name="guilsinglleft" unicode="&#x2039;" horiz-adv-x="284" 
d="M206 80l-169 144v105l169 144l36 -77l-106 -113v-13l106 -113z" />
    <glyph glyph-name="guilsinglright" unicode="&#x203a;" horiz-adv-x="284" 
d="M78 473l169 -144v-105l-169 -144l-36 77l106 113v13l-106 113z" />
    <glyph glyph-name="fraction" unicode="&#x2044;" horiz-adv-x="98" 
d="M64 434l175 264h89l-176 -264h-88zM-230 0l174 254h89l-174 -254h-89z" />
    <glyph glyph-name="uni2070" unicode="&#x2070;" horiz-adv-x="320" 
d="M160 323q-71 0 -105.5 44.5t-34.5 146.5t34.5 146t105.5 44t105.5 -44t34.5 -146t-34.5 -146.5t-105.5 -44.5zM160 392q28 0 38.5 17.5t10.5 59.5v88q0 42 -10.5 59.5t-38.5 17.5t-38.5 -17.5t-10.5 -59.5v-88q0 -42 10.5 -59.5t38.5 -17.5z" />
    <glyph glyph-name="uni2074" unicode="&#x2074;" horiz-adv-x="320" 
d="M174 329v71h-156v69l132 229h104v-235h43v-63h-43v-71h-80zM174 610h-9l-82 -147h91v147z" />
    <glyph glyph-name="uni2075" unicode="&#x2075;" horiz-adv-x="319" 
d="M275 626h-163l-9 -115h9q8 30 25 46t52 16q48 0 77.5 -28t29.5 -90q0 -63 -34.5 -97.5t-104.5 -34.5q-94 0 -133 71l59 47q11 -19 28 -33.5t46 -14.5q50 0 50 49v14q0 49 -50 49q-21 0 -31.5 -8.5t-16.5 -18.5l-73 10l14 210h225v-72z" />
    <glyph glyph-name="uni2076" unicode="&#x2076;" horiz-adv-x="320" 
d="M159 323q-66 0 -101.5 34.5t-35.5 101.5q0 72 32.5 133t94.5 106h121q-69 -44 -109.5 -88.5t-51.5 -96.5h10q8 24 26 39.5t49 15.5q48 0 76 -28.5t28 -86.5q0 -61 -36.5 -95.5t-102.5 -34.5zM160 387q49 0 49 48v21q0 48 -49 48t-49 -48v-21q0 -48 49 -48z" />
    <glyph glyph-name="uni2077" unicode="&#x2077;" horiz-adv-x="320" 
d="M90 329l118 301h-105v-66h-71v134h259v-71l-111 -298h-90z" />
    <glyph glyph-name="uni2078" unicode="&#x2078;" horiz-adv-x="320" 
d="M160 323q-64 0 -99.5 27.5t-35.5 80.5q0 35 21 58.5t53 26.5v9q-26 3 -45.5 25.5t-19.5 55.5q0 98 125 98t125 -98q0 -33 -18.5 -55.5t-44.5 -25.5v-9q33 -3 53.5 -26.5t20.5 -58.5q0 -53 -35.5 -80.5t-99.5 -27.5zM159 547q45 0 45 38v18q0 38 -45 38t-45 -38v-18
q0 -38 45 -38zM160 386q47 0 47 40v20q0 40 -47 40t-47 -40v-20q0 -40 47 -40z" />
    <glyph glyph-name="uni2079" unicode="&#x2079;" horiz-adv-x="320" 
d="M298 568q0 -72 -32.5 -133t-94.5 -106h-121q69 44 109.5 88.5t51.5 96.5h-10q-8 -24 -26 -39.5t-49 -15.5q-48 0 -76 28.5t-28 86.5q0 61 36.5 95.5t102.5 34.5t101.5 -34.5t35.5 -101.5zM160 523q49 0 49 48v21q0 48 -49 48t-49 -48v-21q0 -48 49 -48z" />
    <glyph glyph-name="uni2080" unicode="&#x2080;" horiz-adv-x="320" 
d="M160 -6q-71 0 -105.5 44.5t-34.5 146.5t34.5 146t105.5 44t105.5 -44t34.5 -146t-34.5 -146.5t-105.5 -44.5zM160 63q28 0 38.5 17.5t10.5 59.5v88q0 42 -10.5 59.5t-38.5 17.5t-38.5 -17.5t-10.5 -59.5v-88q0 -42 10.5 -59.5t38.5 -17.5z" />
    <glyph glyph-name="uni2081" unicode="&#x2081;" horiz-adv-x="321" 
d="M51 0v68h86v224l-76 -43l-32 60l103 60h89v-301h76v-68h-246z" />
    <glyph glyph-name="uni2082" unicode="&#x2082;" horiz-adv-x="319" 
d="M290 0h-258v75l103 90q17 15 28.5 27t18 22.5t9.5 20.5t3 21v8q0 20 -12.5 31t-33.5 11q-26 0 -38 -16t-18 -36l-69 26q30 95 133 95q126 0 126 -111q0 -20 -5 -37.5t-16 -34.5t-30 -35t-46 -39l-65 -50h170v-68z" />
    <glyph glyph-name="uni2083" unicode="&#x2083;" horiz-adv-x="320" 
d="M144 224q23 0 35 11t12 26v10q0 15 -12 26t-35 11q-38 0 -66 -42l-52 48q26 32 55 46.5t70 14.5q61 0 95 -24t34 -75q0 -35 -20.5 -56t-49.5 -24v-11q35 -3 55.5 -23.5t20.5 -58.5q0 -57 -36.5 -83t-100.5 -26q-86 0 -134 70l61 47q11 -20 27 -34.5t45 -14.5
q26 0 37.5 11t11.5 30v12q0 19 -11.5 30t-37.5 11h-37v68h33z" />
    <glyph glyph-name="uni2084" unicode="&#x2084;" horiz-adv-x="320" 
d="M174 0v71h-156v69l132 229h104v-235h43v-63h-43v-71h-80zM174 281h-9l-82 -147h91v147z" />
    <glyph glyph-name="uni2085" unicode="&#x2085;" horiz-adv-x="319" 
d="M112 297l-9 -115h9q8 30 25 46t52 16q48 0 77.5 -28t29.5 -90q0 -63 -34.5 -97.5t-104.5 -34.5q-94 0 -133 71l59 47q11 -19 28 -33.5t46 -14.5q50 0 50 49v14q0 49 -50 49q-21 0 -31.5 -8.5t-16.5 -18.5l-73 10l14 210h225v-72h-163z" />
    <glyph glyph-name="uni2086" unicode="&#x2086;" horiz-adv-x="320" 
d="M159 -6q-66 0 -101.5 34.5t-35.5 101.5q0 72 32.5 133t94.5 106h121q-69 -44 -109.5 -88.5t-51.5 -96.5h10q8 24 26 39.5t49 15.5q48 0 76 -28.5t28 -86.5q0 -61 -36.5 -95.5t-102.5 -34.5zM160 58q49 0 49 48v21q0 48 -49 48t-49 -48v-21q0 -48 49 -48z" />
    <glyph glyph-name="uni2087" unicode="&#x2087;" horiz-adv-x="320" 
d="M90 0l118 301h-105v-66h-71v134h259v-71l-111 -298h-90z" />
    <glyph glyph-name="uni2088" unicode="&#x2088;" horiz-adv-x="320" 
d="M160 -6q-64 0 -99.5 27.5t-35.5 80.5q0 35 21 58.5t53 26.5v9q-26 3 -45.5 25.5t-19.5 55.5q0 98 125 98t125 -98q0 -33 -18.5 -55.5t-44.5 -25.5v-9q33 -3 53.5 -26.5t20.5 -58.5q0 -53 -35.5 -80.5t-99.5 -27.5zM160 57q47 0 47 40v20q0 40 -47 40t-47 -40v-20
q0 -40 47 -40zM159 218q45 0 45 38v18q0 38 -45 38t-45 -38v-18q0 -38 45 -38z" />
    <glyph glyph-name="uni2089" unicode="&#x2089;" horiz-adv-x="320" 
d="M298 239q0 -72 -32.5 -133t-94.5 -106h-121q69 44 109.5 88.5t51.5 96.5h-10q-8 -24 -26 -39.5t-49 -15.5q-48 0 -76 28.5t-28 86.5q0 61 36.5 95.5t102.5 34.5t101.5 -34.5t35.5 -101.5zM160 194q49 0 49 48v21q0 48 -49 48t-49 -48v-21q0 -48 49 -48z" />
    <glyph glyph-name="uni20A1" unicode="&#x20a1;" horiz-adv-x="567" 
d="M297 5q-13 0 -25.5 2t-23.5 5l-9 -94h-58l10 113q-71 35 -107.5 114t-36.5 204q0 150 52 234t153 104l9 93h58l-8 -86h6q23 0 43 -3l9 89h58l-10 -101q84 -29 120 -108l-87 -59q-15 37 -45 59l-42 -464q64 17 93 86l85 -60q-26 -52 -72.5 -85t-113.5 -41l-8 -89h-58z
M300 596l-45 -485q22 -7 53 -9l45 491q-17 3 -36 3h-17zM173 255q0 -73 31 -110l40 438q-71 -31 -71 -140v-188z" />
    <glyph glyph-name="uni20A4" unicode="&#x20a4;" horiz-adv-x="530" 
d="M494 0h-432v119q66 34 72 111h-99v77h90q-6 20 -14 41t-15 44h-61v77h44q-1 8 -1.5 16t-0.5 18q0 100 55.5 153.5t166.5 53.5q78 0 126 -28t83 -84l-91 -65q-20 34 -47.5 51.5t-66.5 17.5q-50 0 -75 -24t-25 -86v-12t1 -11h182v-77h-167q6 -23 12 -44t11 -41h144v-77
h-138q-5 -52 -31 -80t-69 -32v-13h346v-105z" />
    <glyph glyph-name="uni20A6" unicode="&#x20a6;" horiz-adv-x="687" 
d="M345 230h-141v-230h-111v230h-77v78h77v83h-77v78h77v229h132l118 -229h140v229h111v-229h77v-78h-77v-83h76v-78h-76v-230h-132zM204 298h106l-51 99l-49 121h-14l8 -121v-99zM491 180l-8 121v100h-106l51 -100l49 -121h14z" />
    <glyph glyph-name="uni20A8" unicode="&#x20a8;" horiz-adv-x="774" 
d="M73 0v698h210q90 0 131.5 -53t41.5 -149q0 -63 -17.5 -108t-55.5 -69l67 -145q23 -50 47 -71t58 -21q61 0 61 49q0 20 -8.5 37.5t-31.5 41.5l-18 18q-21 21 -35 39t-22.5 36t-12 36t-3.5 38q0 65 38 99.5t109 34.5q29 0 56.5 -6t52.5 -23l-40 -80q-23 20 -57 20
q-48 0 -48 -45q0 -20 12.5 -36.5t38.5 -42.5l16 -16q20 -20 33.5 -37t22 -34t12.5 -35t4 -40q0 -66 -43 -107t-142 -41q-75 0 -122.5 31.5t-81.5 103.5l-78 171h-73v-294h-122zM261 393q33 0 51 15.5t18 54.5v63q0 39 -18 54.5t-51 15.5h-66v-203h66z" />
    <glyph glyph-name="uni20A9" unicode="&#x20a9;" horiz-adv-x="908" 
d="M520 229h-134l-49 -229h-146l-48 229h-108v78h92l-17 84h-75v78h59l-49 229h124l44 -229h123l49 229h143l49 -229h124l42 229h120l-49 -229h59v-78h-76l-18 -84h94v-78h-111l-49 -229h-145zM298 290l24 111h-97l21 -111l19 -156h14zM648 134l19 156l21 111h-96l24 -111
l18 -156h14zM401 297h105l-25 119l-20 151h-15l-20 -151z" />
    <glyph glyph-name="uni20AA" unicode="&#x20aa;" horiz-adv-x="798" 
d="M255 519h110v-418h181q38 0 52.5 16t14.5 57v524h110v-524q0 -94 -40 -134t-121 -40h-307v519zM76 0v698h307q81 0 121 -40t40 -134v-346h-110v346q0 41 -14.5 57t-51.5 16h-182v-597h-110z" />
    <glyph glyph-name="uni20AB" unicode="&#x20ab;" horiz-adv-x="520" 
d="M318 218h-14q-14 -35 -42 -54t-69 -19q-74 0 -114 48t-40 154t40 154t114 48q41 0 69 -19t42 -53h14v128h-121v75h121v60h117v-60h56v-75h-56v-450h-117v63zM242 233q34 0 55 20t21 49v90q0 29 -21 49t-55 20q-83 0 -83 -79v-64q0 -40 20.5 -62.5t62.5 -22.5zM50 0v89
h403v-89h-403z" />
    <glyph glyph-name="Euro" unicode="&#x20ac;" horiz-adv-x="565" 
d="M314 -12q-131 0 -199 89.5t-68 271.5t68 271.5t199 89.5q84 0 137 -31.5t80 -90.5l-91 -64q-35 81 -126 81q-64 0 -96.5 -32t-37.5 -104h216v-77h-218v-85h218v-77h-216q5 -73 37.5 -105t96.5 -32q94 0 131 86l91 -62q-29 -60 -85 -94.5t-137 -34.5z" />
    <glyph glyph-name="uni20AD" unicode="&#x20ad;" horiz-adv-x="600" 
d="M209 0h-124v305h-77v100h77v293h124v-293h43l175 293h139l-151 -238l-50 -55h184v-100h-180l51 -56l164 -249h-144l-188 305h-43v-305z" />
    <glyph glyph-name="uni20AE" unicode="&#x20ae;" horiz-adv-x="544" 
d="M334 221v-221h-124v162l-112 -60v76l112 60v78l-112 -60v76l112 60v203h-176v103h476v-103h-176v-144l112 60v-76l-112 -60v-78l112 60v-76z" />
    <glyph glyph-name="uni20B1" unicode="&#x20b1;" horiz-adv-x="618" 
d="M218 0h-122v323h-77v78h77v65h-77v77h77v155h241q74 0 119 -34.5t61 -120.5h86v-77h-77v-65h77v-78h-85q-17 -85 -62 -119.5t-119 -34.5h-119v-169zM400 391v86h-182v-86h182zM327 254q32 0 51 16.5t21 52.5h-181v-69h109zM218 543h181q-2 36 -21 52.5t-51 16.5h-109v-69
z" />
    <glyph glyph-name="uni20B2" unicode="&#x20b2;" horiz-adv-x="601" 
d="M317 4h-13t-13 1l-14 -87h-95l17 109q-152 64 -152 322q0 168 65 254t191 90l14 87h95l-15 -97q48 -14 80 -44t53 -74l-87 -60q-25 61 -74 82l-33 -211h216v-135q0 -57 -18 -101t-50 -74t-75 -46t-92 -16zM173 255q0 -95 51 -129l72 469q-123 -9 -123 -152v-188zM322 282
l-27 -179q5 -1 10.5 -1h11.5q59 0 91.5 33t32.5 102v45h-119z" />
    <glyph glyph-name="uni20B4" unicode="&#x20b4;" horiz-adv-x="580" 
d="M302 -12q-107 0 -157 46t-50 123q0 18 4.5 36.5t12.5 35.5h-79v78h118l79 49l70 32v10l-105 -7h-162v78h322q7 14 10 29.5t3 30.5q0 43 -19 61t-64 18q-70 0 -116 -55l-62 75q32 38 82 60t106 22q100 0 145.5 -45.5t45.5 -122.5q0 -18 -4.5 -37t-12.5 -36h79v-78h-118
l-78 -48l-71 -34v-10l105 8h161v-78h-321q-13 -27 -13 -59q0 -43 23.5 -61t74.5 -18q72 0 118 55l62 -75q-33 -38 -83 -60.5t-106 -22.5z" />
    <glyph glyph-name="uni20B5" unicode="&#x20b5;" horiz-adv-x="550" 
d="M306 4h-7.5t-8.5 1l-13 -87h-96l17 106q-151 64 -151 325q0 170 64 257t191 87l14 87h96l-17 -99q82 -28 120 -109l-86 -59q-20 47 -56 68l-74 -479h7q47 0 78 22.5t50 67.5l86 -60q-29 -59 -82.5 -93.5t-131.5 -34.5zM173 255q0 -95 48 -129l72 470q-120 -5 -120 -153
v-188z" />
    <glyph glyph-name="uni20B8" unicode="&#x20b8;" horiz-adv-x="545" 
d="M34 606v92h477v-92h-477zM335 435v-435h-125v435h-176v92h477v-92h-176z" />
    <glyph glyph-name="uni20B9" unicode="&#x20b9;" horiz-adv-x="557" 
d="M419 437q-6 -75 -39 -121t-93 -59l169 -257h-140l-158 250h-107v90h166q39 0 60 17t21 57v23h-248v90h248v8q0 39 -21 56t-60 17h-166v90h468v-90h-198v-12q70 -6 91 -69h107v-90h-100z" />
    <glyph glyph-name="uni20BA" unicode="&#x20ba;" horiz-adv-x="549" 
d="M95 236l-81 -44v77l81 44v77l-81 -44v77l81 44v231h125v-171l148 78v-77l-148 -78v-77l148 78v-77l-148 -78v-197h61q64 0 93 46t29 159h120q0 -304 -233 -304h-195v236z" />
    <glyph glyph-name="uni20BD" unicode="&#x20bd;" horiz-adv-x="588" 
d="M218 120v-120h-125v120h-79v91h79v85h-79v91h79v311h276q91 0 138.5 -50.5t47.5 -150.5t-47.5 -150.5t-138.5 -50.5h-151v-85h203v-91h-203zM218 387h137q33 0 51.5 17t18.5 56v63q0 39 -18.5 56t-51.5 17h-137v-209z" />
    <glyph glyph-name="uni20BF" unicode="&#x20bf;" horiz-adv-x="596" 
d="M316 20h-60v-102h-92v102h-91v658h91v102h92v-102h60v102h92v-105q60 -7 92.5 -49.5t32.5 -116.5q0 -70 -28 -102t-86 -37v-14q63 -2 100 -37.5t37 -109.5q0 -43 -11 -78t-30.5 -59.5t-47 -38t-59.5 -13.5v-102h-92v102zM188 401h165q58 0 58 67v43q0 67 -58 67h-165
v-177zM188 121h182q63 0 63 70v45q0 70 -63 70h-182v-185z" />
    <glyph glyph-name="uni2113" unicode="&#x2113;" horiz-adv-x="488" 
d="M270 -12q-71 0 -116 40t-45 118v16l-42 -28l-49 82l91 58v299q0 92 39 135.5t115 43.5t115 -43.5t39 -135.5q0 -100 -51 -186.5t-148 -154.5v-64q0 -45 15 -62.5t45 -17.5q32 0 53.5 26t38.5 81l95 -49q-23 -74 -71.5 -116t-123.5 -42zM262 652q-23 0 -33.5 -15.5
t-10.5 -55.5v-230q48 43 68 91t20 110v29q0 40 -10.5 55.5t-33.5 15.5z" />
    <glyph glyph-name="uni2116" unicode="&#x2116;" horiz-adv-x="949" 
d="M767 360q-70 0 -109 41.5t-39 133.5t39 133.5t109 41.5t109 -41.5t39 -133.5t-39 -133.5t-109 -41.5zM72 0v698h140l174 -397l44 -121h14l-7 121v397h117v-698h-140l-174 397l-44 121h-14l8 -121v-397h-118zM767 428q59 0 59 70v74q0 70 -59 70t-59 -70v-74q0 -70 59 -70
zM628 231v71h278v-71h-278z" />
    <glyph glyph-name="trademark" unicode="&#x2122;" horiz-adv-x="562" 
d="M89 413v230h-65v55h199v-55h-65v-230h-69zM254 413v285h74l52 -117h5l51 117h74v-285h-59v108l9 94h-6l-72 -154l-71 154h-7l10 -94v-108h-60z" />
    <glyph glyph-name="Omega" unicode="&#x2126;" horiz-adv-x="642" 
d="M43 102h164v12q-72 21 -115.5 93t-43.5 187q0 71 16.5 129.5t50.5 100t85.5 64t121.5 22.5t121.5 -22.5t85.5 -64t50.5 -100t16.5 -129.5q0 -115 -44.5 -187t-115.5 -93v-12h164v-102h-235v153q20 8 38 23t31.5 36t21.5 46.5t8 54.5v151q0 28 -9.5 53t-28 43.5t-45 29
t-59.5 10.5t-59.5 -10.5t-45 -29t-28 -43.5t-9.5 -53v-151q0 -58 28.5 -101t69.5 -59v-153h-235v102z" />
    <glyph glyph-name="uni212E" unicode="&#x212e;" horiz-adv-x="645" 
d="M187 84q26 -22 60 -34t76 -12q79 0 133 37t90 115l46 -26q-85 -176 -269 -176q-67 0 -121.5 24.5t-93 71t-59.5 113.5t-21 152t21 152t59.5 113.5t93 71t121.5 24.5t121.5 -24.5t93 -71t59.5 -113.5t21 -152h-431v-265zM459 401v217q-26 20 -60 31t-76 11t-76 -11
t-60 -31v-217h272z" />
    <glyph glyph-name="uni2150" unicode="&#x2150;" horiz-adv-x="741" 
d="M511 0l118 301h-105v-66h-71v134h259v-71l-111 -298h-90zM52 329v68h86v224l-76 -43l-32 60l103 60h89v-301h76v-68h-246zM385 434l175 264h89l-176 -264h-88zM91 0l174 254h89l-174 -254h-89z" />
    <glyph glyph-name="uni2151" unicode="&#x2151;" horiz-adv-x="741" 
d="M719 239q0 -72 -32.5 -133t-94.5 -106h-121q69 44 109.5 88.5t51.5 96.5h-10q-8 -24 -26 -39.5t-49 -15.5q-48 0 -76 28.5t-28 86.5q0 61 36.5 95.5t102.5 34.5t101.5 -34.5t35.5 -101.5zM581 194q49 0 49 48v21q0 48 -49 48t-49 -48v-21q0 -48 49 -48zM52 329v68h86v224
l-76 -43l-32 60l103 60h89v-301h76v-68h-246zM385 434l175 264h89l-176 -264h-88zM91 0l174 254h89l-174 -254h-89z" />
    <glyph glyph-name="uni2153" unicode="&#x2153;" horiz-adv-x="741" 
d="M565 224q23 0 35 11t12 26v10q0 15 -12 26t-35 11q-38 0 -66 -42l-52 48q26 32 55 46.5t70 14.5q61 0 95 -24t34 -75q0 -35 -20.5 -56t-49.5 -24v-11q35 -3 55.5 -23.5t20.5 -58.5q0 -57 -36.5 -83t-100.5 -26q-86 0 -134 70l61 47q11 -20 27 -34.5t45 -14.5
q26 0 37.5 11t11.5 30v12q0 19 -11.5 30t-37.5 11h-37v68h33zM52 329v68h86v224l-76 -43l-32 60l103 60h89v-301h76v-68h-246zM385 434l175 264h89l-176 -264h-88zM91 0l174 254h89l-174 -254h-89z" />
    <glyph glyph-name="uni2154" unicode="&#x2154;" horiz-adv-x="740" 
d="M290 329h-258v75l103 90q17 15 28.5 27t18 22.5t9.5 20.5t3 21v8q0 20 -12.5 31t-33.5 11q-26 0 -38 -16t-18 -36l-69 26q30 95 133 95q126 0 126 -111q0 -20 -5 -37.5t-16 -34.5t-30 -35t-46 -39l-65 -50h170v-68zM384 434l175 264h89l-176 -264h-88zM90 0l174 254h89
l-174 -254h-89zM564 224q23 0 35 11t12 26v10q0 15 -12 26t-35 11q-38 0 -66 -42l-52 48q26 32 55 46.5t70 14.5q61 0 95 -24t34 -75q0 -35 -20.5 -56t-49.5 -24v-11q35 -3 55.5 -23.5t20.5 -58.5q0 -57 -36.5 -83t-100.5 -26q-86 0 -134 70l61 47q11 -20 27 -34.5t45 -14.5
q26 0 37.5 11t11.5 30v12q0 19 -11.5 30t-37.5 11h-37v68h33z" />
    <glyph glyph-name="uni2155" unicode="&#x2155;" horiz-adv-x="740" 
d="M533 297l-9 -115h9q8 30 25 46t52 16q48 0 77.5 -28t29.5 -90q0 -63 -34.5 -97.5t-104.5 -34.5q-94 0 -133 71l59 47q11 -19 28 -33.5t46 -14.5q50 0 50 49v14q0 49 -50 49q-21 0 -31.5 -8.5t-16.5 -18.5l-73 10l14 210h225v-72h-163zM52 329v68h86v224l-76 -43l-32 60
l103 60h89v-301h76v-68h-246zM385 434l175 264h89l-176 -264h-88zM91 0l174 254h89l-174 -254h-89z" />
    <glyph glyph-name="uni2156" unicode="&#x2156;" horiz-adv-x="739" 
d="M290 329h-258v75l103 90q17 15 28.5 27t18 22.5t9.5 20.5t3 21v8q0 20 -12.5 31t-33.5 11q-26 0 -38 -16t-18 -36l-69 26q30 95 133 95q126 0 126 -111q0 -20 -5 -37.5t-16 -34.5t-30 -35t-46 -39l-65 -50h170v-68zM384 434l175 264h89l-176 -264h-88zM90 0l174 254h89
l-174 -254h-89zM532 297l-9 -115h9q8 30 25 46t52 16q48 0 77.5 -28t29.5 -90q0 -63 -34.5 -97.5t-104.5 -34.5q-94 0 -133 71l59 47q11 -19 28 -33.5t46 -14.5q50 0 50 49v14q0 49 -50 49q-21 0 -31.5 -8.5t-16.5 -18.5l-73 10l14 210h225v-72h-163z" />
    <glyph glyph-name="uni2157" unicode="&#x2157;" horiz-adv-x="739" 
d="M144 553q23 0 35 11t12 26v10q0 15 -12 26t-35 11q-38 0 -66 -42l-52 48q26 32 55 46.5t70 14.5q61 0 95 -24t34 -75q0 -35 -20.5 -56t-49.5 -24v-11q35 -3 55.5 -23.5t20.5 -58.5q0 -57 -36.5 -83t-100.5 -26q-86 0 -134 70l61 47q11 -20 27 -34.5t45 -14.5
q26 0 37.5 11t11.5 30v12q0 19 -11.5 30t-37.5 11h-37v68h33zM384 434l175 264h89l-176 -264h-88zM90 0l174 254h89l-174 -254h-89zM532 297l-9 -115h9q8 30 25 46t52 16q48 0 77.5 -28t29.5 -90q0 -63 -34.5 -97.5t-104.5 -34.5q-94 0 -133 71l59 47q11 -19 28 -33.5
t46 -14.5q50 0 50 49v14q0 49 -50 49q-21 0 -31.5 -8.5t-16.5 -18.5l-73 10l14 210h225v-72h-163z" />
    <glyph glyph-name="uni2158" unicode="&#x2158;" horiz-adv-x="739" 
d="M174 329v71h-156v69l132 229h104v-235h43v-63h-43v-71h-80zM174 610h-9l-82 -147h91v147zM384 434l175 264h89l-176 -264h-88zM90 0l174 254h89l-174 -254h-89zM532 297l-9 -115h9q8 30 25 46t52 16q48 0 77.5 -28t29.5 -90q0 -63 -34.5 -97.5t-104.5 -34.5
q-94 0 -133 71l59 47q11 -19 28 -33.5t46 -14.5q50 0 50 49v14q0 49 -50 49q-21 0 -31.5 -8.5t-16.5 -18.5l-73 10l14 210h225v-72h-163z" />
    <glyph glyph-name="uni2159" unicode="&#x2159;" horiz-adv-x="741" 
d="M52 329v68h86v224l-76 -43l-32 60l103 60h89v-301h76v-68h-246zM385 434l175 264h89l-176 -264h-88zM91 0l174 254h89l-174 -254h-89zM580 -6q-66 0 -101.5 34.5t-35.5 101.5q0 72 32.5 133t94.5 106h121q-69 -44 -109.5 -88.5t-51.5 -96.5h10q8 24 26 39.5t49 15.5
q48 0 76 -28.5t28 -86.5q0 -61 -36.5 -95.5t-102.5 -34.5zM581 58q49 0 49 48v21q0 48 -49 48t-49 -48v-21q0 -48 49 -48z" />
    <glyph glyph-name="uni215A" unicode="&#x215a;" horiz-adv-x="740" 
d="M275 626h-163l-9 -115h9q8 30 25 46t52 16q48 0 77.5 -28t29.5 -90q0 -63 -34.5 -97.5t-104.5 -34.5q-94 0 -133 71l59 47q11 -19 28 -33.5t46 -14.5q50 0 50 49v14q0 49 -50 49q-21 0 -31.5 -8.5t-16.5 -18.5l-73 10l14 210h225v-72zM384 434l175 264h89l-176 -264h-88z
M90 0l174 254h89l-174 -254h-89zM579 -6q-66 0 -101.5 34.5t-35.5 101.5q0 72 32.5 133t94.5 106h121q-69 -44 -109.5 -88.5t-51.5 -96.5h10q8 24 26 39.5t49 15.5q48 0 76 -28.5t28 -86.5q0 -61 -36.5 -95.5t-102.5 -34.5zM580 58q49 0 49 48v21q0 48 -49 48t-49 -48v-21
q0 -48 49 -48z" />
    <glyph glyph-name="uni215B" unicode="&#x215b;" horiz-adv-x="741" 
d="M52 329v68h86v224l-76 -43l-32 60l103 60h89v-301h76v-68h-246zM385 434l175 264h89l-176 -264h-88zM91 0l174 254h89l-174 -254h-89zM581 -6q-64 0 -99.5 27.5t-35.5 80.5q0 35 21 58.5t53 26.5v9q-26 3 -45.5 25.5t-19.5 55.5q0 98 125 98t125 -98q0 -33 -18.5 -55.5
t-44.5 -25.5v-9q33 -3 53.5 -26.5t20.5 -58.5q0 -53 -35.5 -80.5t-99.5 -27.5zM581 57q47 0 47 40v20q0 40 -47 40t-47 -40v-20q0 -40 47 -40zM580 218q45 0 45 38v18q0 38 -45 38t-45 -38v-18q0 -38 45 -38z" />
    <glyph glyph-name="uni215C" unicode="&#x215c;" horiz-adv-x="740" 
d="M144 553q23 0 35 11t12 26v10q0 15 -12 26t-35 11q-38 0 -66 -42l-52 48q26 32 55 46.5t70 14.5q61 0 95 -24t34 -75q0 -35 -20.5 -56t-49.5 -24v-11q35 -3 55.5 -23.5t20.5 -58.5q0 -57 -36.5 -83t-100.5 -26q-86 0 -134 70l61 47q11 -20 27 -34.5t45 -14.5
q26 0 37.5 11t11.5 30v12q0 19 -11.5 30t-37.5 11h-37v68h33zM384 434l175 264h89l-176 -264h-88zM90 0l174 254h89l-174 -254h-89zM580 -6q-64 0 -99.5 27.5t-35.5 80.5q0 35 21 58.5t53 26.5v9q-26 3 -45.5 25.5t-19.5 55.5q0 98 125 98t125 -98q0 -33 -18.5 -55.5
t-44.5 -25.5v-9q33 -3 53.5 -26.5t20.5 -58.5q0 -53 -35.5 -80.5t-99.5 -27.5zM580 57q47 0 47 40v20q0 40 -47 40t-47 -40v-20q0 -40 47 -40zM579 218q45 0 45 38v18q0 38 -45 38t-45 -38v-18q0 -38 45 -38z" />
    <glyph glyph-name="uni215D" unicode="&#x215d;" horiz-adv-x="740" 
d="M275 626h-163l-9 -115h9q8 30 25 46t52 16q48 0 77.5 -28t29.5 -90q0 -63 -34.5 -97.5t-104.5 -34.5q-94 0 -133 71l59 47q11 -19 28 -33.5t46 -14.5q50 0 50 49v14q0 49 -50 49q-21 0 -31.5 -8.5t-16.5 -18.5l-73 10l14 210h225v-72zM384 434l175 264h89l-176 -264h-88z
M90 0l174 254h89l-174 -254h-89zM580 -6q-64 0 -99.5 27.5t-35.5 80.5q0 35 21 58.5t53 26.5v9q-26 3 -45.5 25.5t-19.5 55.5q0 98 125 98t125 -98q0 -33 -18.5 -55.5t-44.5 -25.5v-9q33 -3 53.5 -26.5t20.5 -58.5q0 -53 -35.5 -80.5t-99.5 -27.5zM580 57q47 0 47 40v20
q0 40 -47 40t-47 -40v-20q0 -40 47 -40zM579 218q45 0 45 38v18q0 38 -45 38t-45 -38v-18q0 -38 45 -38z" />
    <glyph glyph-name="uni215E" unicode="&#x215e;" horiz-adv-x="740" 
d="M90 329l118 301h-105v-66h-71v134h259v-71l-111 -298h-90zM384 434l175 264h89l-176 -264h-88zM90 0l174 254h89l-174 -254h-89zM580 -6q-64 0 -99.5 27.5t-35.5 80.5q0 35 21 58.5t53 26.5v9q-26 3 -45.5 25.5t-19.5 55.5q0 98 125 98t125 -98q0 -33 -18.5 -55.5
t-44.5 -25.5v-9q33 -3 53.5 -26.5t20.5 -58.5q0 -53 -35.5 -80.5t-99.5 -27.5zM580 57q47 0 47 40v20q0 40 -47 40t-47 -40v-20q0 -40 47 -40zM579 218q45 0 45 38v18q0 38 -45 38t-45 -38v-18q0 -38 45 -38z" />
    <glyph glyph-name="uni2190" unicode="&#x2190;" horiz-adv-x="810" 
d="M269 572l66 -66l-57 -57l-73 -50l5 -13l104 14h442v-102h-442l-104 14l-5 -13l73 -50l57 -57l-66 -66l-223 223z" />
    <glyph glyph-name="uni2191" unicode="&#x2191;" horiz-adv-x="810" 
d="M628 487l-66 -66l-57 57l-50 73l-13 -5l14 -104v-442h-102v442l14 104l-13 5l-50 -73l-57 -57l-66 66l223 223z" />
    <glyph glyph-name="uni2192" unicode="&#x2192;" horiz-adv-x="810" 
d="M541 126l-66 66l57 57l73 50l-5 13l-104 -14h-442v102h442l104 -14l5 13l-73 50l-57 57l66 66l223 -223z" />
    <glyph glyph-name="uni2193" unicode="&#x2193;" horiz-adv-x="810" 
d="M182 211l66 66l57 -57l50 -73l13 5l-14 104v442h102v-442l-14 -104l13 -5l50 73l57 57l66 -66l-223 -223z" />
    <glyph glyph-name="uni2194" unicode="&#x2194;" horiz-adv-x="810" 
d="M266 572l66 -66l-57 -57l-73 -50l4 -13l105 14h188l105 -14l4 13l-73 50l-57 57l66 66l223 -223l-223 -223l-66 66l57 57l73 50l-5 13l-104 -14h-188l-104 14l-5 -13l73 -50l57 -57l-66 -66l-223 223z" />
    <glyph glyph-name="uni2195" unicode="&#x2195;" horiz-adv-x="810" 
d="M182 211l66 66l57 -57l50 -73l13 5l-14 104v186l14 104l-13 5l-50 -73l-57 -57l-66 66l223 223l223 -223l-66 -66l-57 57l-51 73l-12 -5l14 -104v-186l-14 -104l13 -5l50 73l57 57l66 -66l-223 -223z" />
    <glyph glyph-name="uni2196" unicode="&#x2196;" horiz-adv-x="810" 
d="M459 622v-93h-81l-86 16l-6 -13l84 -63l312 -313l-72 -72l-313 312l-63 84l-13 -6l16 -87v-80h-93v315h315z" />
    <glyph glyph-name="uni2197" unicode="&#x2197;" horiz-adv-x="810" 
d="M666 307h-93v80l16 87l-13 6l-63 -84l-313 -312l-72 72l312 313l84 63l-6 13l-86 -16h-81v93h315v-315z" />
    <glyph glyph-name="uni2198" unicode="&#x2198;" horiz-adv-x="810" 
d="M351 89v93h81l86 -16l6 13l-84 63l-312 313l72 72l313 -312l63 -84l13 6l-16 87v80h93v-315h-315z" />
    <glyph glyph-name="uni2199" unicode="&#x2199;" horiz-adv-x="810" 
d="M144 404h93v-80l-16 -87l13 -6l63 84l313 312l72 -72l-312 -313l-84 -63l6 -13l87 16h80v-93h-315v315z" />
    <glyph glyph-name="uni21A9" unicode="&#x21a9;" horiz-adv-x="810" 
d="M273 525l66 -66l-57 -57l-73 -50l5 -13l104 14h231q51 0 80.5 23t29.5 70t-29.5 70t-80.5 23v92q98 0 154.5 -48t56.5 -142t-56.5 -142t-154.5 -48h-231l-104 14l-5 -13l73 -50l57 -57l-66 -66l-223 223z" />
    <glyph glyph-name="uni21AA" unicode="&#x21aa;" horiz-adv-x="810" 
d="M537 79l-66 66l57 57l73 50l-5 13l-104 -14h-231q-98 0 -154.5 48t-56.5 142t56.5 142t154.5 48v-92q-51 0 -80.5 -23t-29.5 -70t29.5 -70t80.5 -23h231l104 -14l5 13l-73 50l-57 57l66 66l223 -223z" />
    <glyph glyph-name="uni21B0" unicode="&#x21b0;" horiz-adv-x="810" 
d="M329 710l66 -66l-57 -57l-73 -50l5 -13l104 14h253v-538h-93v436h-160l-105 14l-4 -13l73 -50l57 -57l-66 -66l-223 223z" />
    <glyph glyph-name="uni21B1" unicode="&#x21b1;" horiz-adv-x="810" 
d="M481 264l-66 66l57 57l73 50l-4 13l-105 -14h-160v-436h-93v538h253l104 -14l5 13l-73 50l-57 57l66 66l223 -223z" />
    <glyph glyph-name="uni21B2" unicode="&#x21b2;" horiz-adv-x="810" 
d="M329 434l66 -66l-57 -57l-73 -50l4 -13l105 14h160v436h93v-538h-253l-104 14l-5 -13l73 -50l57 -57l-66 -66l-223 223z" />
    <glyph glyph-name="uni21B3" unicode="&#x21b3;" horiz-adv-x="810" 
d="M481 -11l-66 66l57 57l73 50l-5 13l-104 -14h-253v538h93v-436h160l105 -14l4 13l-73 50l-57 57l66 66l223 -223z" />
    <glyph glyph-name="uni21B6" unicode="&#x21b6;" horiz-adv-x="810" 
d="M32 271l66 66l57 -57l50 -73l13 5l-14 104v62q0 61 22 113t60 89.5t90.5 58.5t114.5 21q61 0 114 -21t91 -58.5t60 -89.5t22 -113h-102q0 43 -13.5 78t-38 60t-58.5 39t-75 14t-75 -14t-58.5 -39t-38 -60t-13.5 -78v-62l-14 -104l13 -5l50 73l57 57l66 -66l-223 -223z
" />
    <glyph glyph-name="uni21B7" unicode="&#x21b7;" horiz-adv-x="810" 
d="M332 271l66 66l57 -57l50 -73l13 5l-14 104v62q0 43 -13.5 78t-38 60t-58.5 39t-75 14t-75 -14t-58.5 -39t-38 -60t-13.5 -78h-102q0 61 22 113t60 89.5t90.5 58.5t114.5 21q61 0 114 -21t91 -58.5t60 -89.5t22 -113v-62l-14 -104l13 -5l50 73l57 57l66 -66l-223 -223z
" />
    <glyph glyph-name="uni21BA" unicode="&#x21ba;" horiz-adv-x="810" 
d="M688 698v-93h-81l-86 16l-6 -13l78 -68q61 -54 89.5 -113.5t28.5 -128.5q0 -67 -23 -123.5t-63.5 -98t-97 -65t-122.5 -23.5t-122.5 23.5t-97 65t-63.5 98t-23 123.5t23 122.5t65 95.5l67 -67q-26 -28 -40 -66t-14 -85q0 -48 15 -88t42 -69t64.5 -45t83.5 -16t83.5 16
t64.5 45t42 69t15 88q0 49 -17 93t-62 92l-68 73l-13 -6l16 -87v-80h-93v315h315z" />
    <glyph glyph-name="uni21BB" unicode="&#x21bb;" horiz-adv-x="810" 
d="M437 383h-93v80l16 87l-13 6l-68 -73q-45 -48 -62 -92t-17 -93q0 -48 15 -88t42 -69t64.5 -45t83.5 -16t83.5 16t64.5 45t42 69t15 88q0 47 -14 85t-40 66l67 67q42 -40 65 -95.5t23 -122.5t-23 -123.5t-63.5 -98t-97 -65t-122.5 -23.5t-122.5 23.5t-97 65t-63.5 98
t-23 123.5q0 69 28.5 128.5t89.5 113.5l78 68l-6 13l-86 -16h-81v93h315v-315z" />
    <glyph glyph-name="uni21C4" unicode="&#x21c4;" horiz-adv-x="810" 
d="M269 409l66 -66l-57 -57l-73 -50l5 -13l104 14h442v-102h-442l-104 14l-5 -13l73 -50l57 -57l-66 -66l-223 223zM541 290l-66 66l57 57l73 50l-5 13l-104 -14h-442v102h442l104 -14l5 13l-73 50l-57 57l66 66l223 -223z" />
    <glyph glyph-name="uni21C6" unicode="&#x21c6;" horiz-adv-x="810" 
d="M269 736l66 -66l-57 -57l-73 -50l5 -13l104 14h442v-102h-442l-104 14l-5 -13l73 -50l57 -57l-66 -66l-223 223zM541 -37l-66 66l57 57l73 50l-5 13l-104 -14h-442v102h442l104 -14l5 13l-73 50l-57 57l66 66l223 -223z" />
    <glyph glyph-name="partialdiff" unicode="&#x2202;" horiz-adv-x="529" 
d="M490 258q0 -137 -58 -203.5t-168 -66.5q-112 0 -169 66.5t-57 197.5q0 125 48.5 188.5t132.5 63.5q51 0 81 -24t46 -69h15q-17 77 -81.5 146t-187.5 141h176q222 -146 222 -440zM264 88q49 0 74.5 28t25.5 90v81q0 62 -25.5 90t-74.5 28t-74.5 -28t-25.5 -90v-81
q0 -62 25.5 -90t74.5 -28z" />
    <glyph glyph-name="Delta" unicode="&#x2206;" horiz-adv-x="607" 
d="M45 102l176 596h165l177 -596v-102h-518v102zM337 455l-28 131h-14l-28 -131l-93 -347h257z" />
    <glyph glyph-name="product" unicode="&#x220f;" horiz-adv-x="650" 
d="M114 -200v789h-88v109h598v-109h-88v-789h-125v789h-172v-789h-125z" />
    <glyph glyph-name="summation" unicode="&#x2211;" horiz-adv-x="495" 
d="M461 -200h-421v112l202 332v10l-202 332v112h421v-109h-287l190 -310v-60l-190 -310h287v-109z" />
    <glyph glyph-name="minus" unicode="&#x2212;" 
d="M56 259v95h428v-95h-428z" />
    <glyph glyph-name="radical" unicode="&#x221a;" horiz-adv-x="539" 
d="M188 0l-112 426h-66v97h158l69 -279l26 -142h14l25 142l116 454h115l-186 -698h-159z" />
    <glyph glyph-name="infinity" unicode="&#x221e;" horiz-adv-x="702" 
d="M183 97q-82 0 -123.5 50.5t-41.5 148.5t43.5 148.5t133.5 50.5q66 0 109 -32t66 -106h15q4 66 39.5 102t94.5 36q82 0 123.5 -50.5t41.5 -148.5t-43.5 -148.5t-133.5 -50.5q-66 0 -109 32t-66 106h-15q-4 -66 -39.5 -102t-94.5 -36zM195 190q42 0 69.5 24t38.5 75
q-33 113 -108 113q-33 0 -51.5 -19.5t-18.5 -61.5v-50q0 -42 18.5 -61.5t51.5 -19.5zM507 190q33 0 51.5 19.5t18.5 61.5v50q0 42 -18.5 61.5t-51.5 19.5q-42 0 -69.5 -24t-38.5 -75q33 -113 108 -113z" />
    <glyph glyph-name="integral" unicode="&#x222b;" horiz-adv-x="401" 
d="M35 -102h105v719q0 60 30 91.5t98 31.5h98v-98h-105v-719q0 -60 -30 -91.5t-97 -31.5h-99v98z" />
    <glyph glyph-name="approxequal" unicode="&#x2248;" 
d="M373 329q-33 0 -58.5 9t-55.5 26q-25 14 -50 25t-48 11q-21 0 -37 -7t-35 -22l-42 66q17 26 48 43t72 17q33 0 58.5 -9t55.5 -26q25 -14 50 -25t48 -11q21 0 37 7t35 22l42 -66q-17 -26 -48 -43t-72 -17zM373 113q-33 0 -58.5 9t-55.5 26q-25 14 -50 25t-48 11
q-21 0 -37 -7t-35 -22l-42 66q17 26 48 43t72 17q33 0 58.5 -9t55.5 -26q25 -14 50 -25t48 -11q21 0 37 7t35 22l42 -66q-17 -26 -48 -43t-72 -17z" />
    <glyph glyph-name="notequal" unicode="&#x2260;" 
d="M90 54l51 99h-85v96h133l61 117h-194v96h242l51 99h101l-51 -99h85v-96h-133l-61 -117h194v-96h-242l-51 -99h-101z" />
    <glyph glyph-name="lessequal" unicode="&#x2264;" horiz-adv-x="539" 
d="M88 0v94h364v-94h-364zM452 490l-242 -116v-14l242 -116v-110l-364 187v92l364 187v-110z" />
    <glyph glyph-name="greaterequal" unicode="&#x2265;" horiz-adv-x="539" 
d="M87 244l242 116v14l-242 116v110l364 -187v-92l-364 -187v110zM87 94h364v-94h-364v94z" />
    <glyph glyph-name="lozenge" unicode="&#x25ca;" horiz-adv-x="539" 
d="M219 0l-185 349l185 349h102l185 -349l-185 -349h-102zM277 109l120 240l-120 240h-14l-120 -240l120 -240h14z" />
    <glyph glyph-name="uni2713" unicode="&#x2713;" horiz-adv-x="738" 
d="M418 0h-153l-192 489l111 42l122 -313l29 -114h14l30 114l189 489l111 -42z" />
    <glyph glyph-name="uni274C" unicode="&#x274c;" horiz-adv-x="738" 
d="M589 -9l-220 270l-220 -270l-89 67l238 291l-238 291l88 67l221 -271l221 271l88 -67l-238 -291l238 -291z" />
    <glyph glyph-name="uni2B0E" unicode="&#x2b0e;" horiz-adv-x="810" 
d="M316 310l66 66l57 -57l50 -73l13 4l-14 105v160h-436v93h538v-253l-14 -104l13 -5l50 73l57 57l66 -66l-223 -223z" />
    <glyph glyph-name="uni2B0F" unicode="&#x2b0f;" horiz-adv-x="810" 
d="M762 414l-66 -66l-57 57l-50 73l-13 -5l14 -104v-253h-538v93h436v160l14 105l-13 4l-50 -73l-57 -57l-66 66l223 223z" />
    <glyph glyph-name="uni2B10" unicode="&#x2b10;" horiz-adv-x="810" 
d="M48 309l66 66l57 -57l50 -73l13 5l-14 104v253h538v-93h-436v-160l-14 -105l13 -4l50 73l57 57l66 -66l-223 -223z" />
    <glyph glyph-name="uni2B11" unicode="&#x2b11;" horiz-adv-x="810" 
d="M494 414l-66 -66l-57 57l-50 73l-13 -4l14 -105v-160h436v-93h-538v253l14 104l-13 5l-50 -73l-57 -57l-66 66l223 223z" />
    <glyph glyph-name="uniEBE7" unicode="&#xebe7;" horiz-adv-x="644" 
d="M488 160q-20 0 -34.5 11.5t-19.5 31.5l-38 142l121 -82q27 -19 27 -48q0 -23 -16.5 -39t-39.5 -16zM156 160q-23 0 -39.5 16t-16.5 39q0 29 27 48l121 82l-38 -142q-5 -20 -19.5 -31.5t-34.5 -11.5zM396 252h-148v37h148v-37zM396 178h-148v37h148v-37zM322 104
q-20 0 -37.5 10t-26.5 27h128q-9 -17 -26.5 -27t-37.5 -10zM322 363q20 0 37.5 -10t26.5 -27h-128q9 17 26.5 27t37.5 10zM364 373q-14 0 -23.5 9t-9.5 23t9.5 23t23.5 9t23.5 -9t9.5 -23t-9.5 -23t-23.5 -9zM280 373q-14 0 -23.5 9t-9.5 23t9.5 23t23.5 9t23.5 -9t9.5 -23
t-9.5 -23t-23.5 -9zM174 2v19h116l7 -19h-123zM347 2l7 19h116v-19h-123zM174 39v19h104l6 -19h-110zM360 39l6 19h104v-19h-110zM335 -35l6 19h92v-19h-98zM211 -35v19h92l6 -19h-98zM174 -183v19h93v-19h-93zM377 -183v19h93v-19h-93zM174 -220v19h93v-19h-93zM377 -220
v19h93v-19h-93zM279 -90h86l-6 -19h-74zM377 -109v19h56v-19h-56zM377 -72v19h56v-19h-56zM377 -146v19h56v-19h-56zM211 -109v19h56v-19h-56zM211 -72v19h56v-19h-56zM211 -146v19h56v-19h-56zM291 -127h62l-7 -19h-48zM273 -72l-6 19h48l7 -19h-49zM322 -72l7 19h48
l-6 -19h-49zM304 -164h36l-6 -19h-24zM316 -201h12l-6 -19zM285 586q0 16 10.5 26.5t26.5 10.5t26.5 -10.5t10.5 -26.5t-10.5 -26.5t-26.5 -10.5t-26.5 10.5t-10.5 26.5zM239 586q0 -35 24 -59t59 -24t59 24t24 59t-24 59t-59 24t-59 -24t-24 -59zM470 586
q-18 -45 -58 -73.5t-90 -28.5t-90 28.5t-58 73.5q18 45 58 73.5t90 28.5t90 -28.5t58 -73.5zM322 734q-42 0 -78 -18t-61 -47v28q21 38 57.5 60.5t81.5 22.5t81.5 -22.5t57.5 -60.5v-28q-25 29 -61 47t-78 18z" />
    <glyph glyph-name="uniECE0" unicode="&#xece0;" horiz-adv-x="1177" 
d="M1044 604q-45 0 -86 -15t-74 -42t-56 -63.5t-32 -79.5h209v-110h-209q9 -43 32 -79.5t56 -63.5t74 -42t86 -15q19 0 37 3v-107q-6 -1 -16.5 -1.5t-21.5 -0.5q-74 0 -139 28.5t-114 77.5t-77.5 114.5t-28.5 140.5t28.5 140.5t77.5 114.5t114 77.5t139 28.5q11 0 21.5 -0.5
t16.5 -1.5v-107q-18 3 -37 3zM170 349q0 -53 20 -99t54.5 -81t81 -55t98.5 -20q19 0 37 3v-107q-6 -1 -16.5 -1.5t-21.5 -0.5q-74 0 -139 28.5t-114 77.5t-77.5 114.5t-28.5 140.5t28.5 140.5t77.5 114.5t114 77.5t139 28.5q11 0 21.5 -0.5t16.5 -1.5v-107q-18 3 -37 3
q-52 0 -98.5 -20t-81 -55t-54.5 -81.5t-20 -98.5z" />
    <glyph glyph-name="uniEFCC" unicode="&#xefcc;" horiz-adv-x="1046" 
d="M563 349q0 -28 10 -52t27 -41.5t40.5 -27.5t49.5 -10q34 0 62 16t45 42l63 -45q-29 -41 -72.5 -64.5t-95.5 -23.5q-43 0 -80.5 16t-65.5 44t-44 65.5t-16 80.5t16 80.5t44 65.5t65.5 44t80.5 16q52 0 95.5 -23.5t72.5 -64.5l-63 -45q-17 26 -45 42t-62 16
q-26 0 -49.5 -10t-40.5 -27.5t-27 -41.5t-10 -52zM200 54l-72 -52v696h303l-61 -76h-170v-235h136q7 67 37.5 125.5t78.5 102t109.5 68t131.5 24.5q89 0 164 -40t125 -109l-63 -46q-18 25 -42 47t-53.5 38.5t-63 25.5t-69.5 9q-54 0 -104.5 -20.5t-89.5 -58t-62.5 -89.5
t-23.5 -115t23.5 -115t62.5 -89.5t89.5 -58t104.5 -20.5q36 0 69.5 9t63 25.5t53.5 38t42 47.5l63 -46q-50 -69 -125 -109t-164 -40q-70 0 -131.5 24.5t-109.5 68t-78.5 101.5t-37.5 126h-136v-257z" />
    <glyph glyph-name="dieresisacute" unicode="&#xf6d7;" horiz-adv-x="0" 
d="M12 723l-65 35l84 186l96 -50zM-94 590q-36 0 -51 13.5t-15 38.5v28q0 25 15 38.5t51 13.5t51 -13.5t15 -38.5v-28q0 -25 -15 -38.5t-51 -13.5zM94 590q-36 0 -51 13.5t-15 38.5v28q0 25 15 38.5t51 13.5t51 -13.5t15 -38.5v-28q0 -25 -15 -38.5t-51 -13.5z" />
    <glyph glyph-name="dieresisgrave" unicode="&#xf6d8;" horiz-adv-x="0" 
d="M-126 894l96 50l83 -186l-65 -35zM-94 590q-36 0 -51 13.5t-15 38.5v28q0 25 15 38.5t51 13.5t51 -13.5t15 -38.5v-28q0 -25 -15 -38.5t-51 -13.5zM94 590q-36 0 -51 13.5t-15 38.5v28q0 25 15 38.5t51 13.5t51 -13.5t15 -38.5v-28q0 -25 -15 -38.5t-51 -13.5z" />
    <glyph glyph-name="fl" unicode="&#xfb02;" horiz-adv-x="586" 
d="M502 0q-63 0 -90.5 28t-27.5 88v624h121v-643h60v-97h-63zM91 425h-69v97h69v81q0 71 31.5 104t97.5 33h88v-97h-96v-121h96v-97h-96v-425h-121v425z" />
    <glyph glyph-name="a.alt01" horiz-adv-x="544" 
d="M357 86h-14q-11 -44 -44.5 -71t-78.5 -27q-92 0 -136 69.5t-44 203.5t44 203.5t136 69.5q45 0 78.5 -27t44.5 -71h14v86h121v-522h-121v86zM266 88q41 0 66 20.5t25 57.5v190q0 37 -25 57.5t-66 20.5q-47 0 -73 -29t-26 -82v-124q0 -53 26 -82t73 -29z" />
    <glyph glyph-name="g.alt01" horiz-adv-x="544" 
d="M478 18q0 -112 -56.5 -171t-170.5 -59q-64 0 -108.5 20t-73.5 53l66 78q45 -53 116 -53q55 0 80.5 31t25.5 92v86h-14q-11 -45 -44.5 -72t-78.5 -27q-92 0 -136 69t-44 200t44 200t136 69q45 0 78.5 -27t44.5 -71h14v86h121v-504zM266 99q41 0 66 20.5t25 57.5v179
q0 37 -25 57.5t-66 20.5q-47 0 -73 -29t-26 -82v-113q0 -53 26 -82t73 -29z" />
    <glyph glyph-name="g.alt02" horiz-adv-x="500" 
d="M493 -46q0 -41 -12.5 -72t-41.5 -52t-77 -31.5t-118 -10.5q-62 0 -104 8.5t-68 24.5t-37 39t-11 52q0 40 22 63t63 29v19q-32 8 -47.5 30t-15.5 54t22 53.5t64 29.5v13q-85 42 -85 154q0 85 48 131t149 46q23 0 45 -2.5t41 -9.5h154v-85h-131v-12q44 -2 65.5 -26.5
t21.5 -59.5q0 -33 -11.5 -62t-35.5 -50t-61 -33.5t-87 -12.5q-42 0 -77 8q-14 -6 -21 -19t-7 -29q0 -20 13 -30t43 -10h133q89 0 126.5 -38t37.5 -109zM244 264q83 0 83 82v23q0 82 -83 82t-83 -82v-23q0 -82 83 -82zM380 -60q0 27 -18 41t-60 14h-161q-22 -19 -22 -56
q0 -32 21.5 -49t75.5 -17h59q57 0 81 16.5t24 50.5z" />
    <glyph glyph-name="zero.alt01" 
d="M270 -12q-61 0 -105 20.5t-72.5 64t-42.5 112t-14 164.5t14 164.5t42.5 112t72.5 64t105 20.5t105 -20.5t72.5 -64t42.5 -112t14 -164.5t-14 -164.5t-42.5 -112t-72.5 -64t-105 -20.5zM270 95q57 0 79.5 36.5t22.5 119.5v196q0 83 -22.5 119.5t-79.5 36.5t-79.5 -36.5
t-22.5 -119.5v-196q0 -83 22.5 -119.5t79.5 -36.5zM270 292q-53 0 -53 45v24q0 45 53 45t53 -45v-24q0 -45 -53 -45z" />
    <glyph glyph-name="zero.alt02" 
d="M270 -12q-61 0 -105 20.5t-72.5 64t-42.5 112t-14 164.5t14 164.5t42.5 112t72.5 64t105 20.5t105 -20.5t72.5 -64t42.5 -112t14 -164.5t-14 -164.5t-42.5 -112t-72.5 -64t-105 -20.5zM177 170q10 -43 32.5 -59t60.5 -16q57 0 79.5 36.5t22.5 119.5v67l10 115h-11
l-102 -149zM168 381l-10 -116h11l102 149l92 114q-10 43 -32.5 59t-60.5 16q-57 0 -79.5 -36.5t-22.5 -119.5v-66z" />
    <glyph glyph-name="aacute.alt01" horiz-adv-x="544" 
d="M357 86h-14q-11 -44 -44.5 -71t-78.5 -27q-92 0 -136 69.5t-44 203.5t44 203.5t136 69.5q45 0 78.5 -27t44.5 -71h14v86h121v-522h-121v86zM266 88q41 0 66 20.5t25 57.5v190q0 37 -25 57.5t-66 20.5q-47 0 -73 -29t-26 -82v-124q0 -53 26 -82t73 -29zM286 581l-73 35
l88 189l104 -51z" />
    <glyph glyph-name="abreve.alt01" horiz-adv-x="544" 
d="M357 86h-14q-11 -44 -44.5 -71t-78.5 -27q-92 0 -136 69.5t-44 203.5t44 203.5t136 69.5q45 0 78.5 -27t44.5 -71h14v86h121v-522h-121v86zM266 88q41 0 66 20.5t25 57.5v190q0 37 -25 57.5t-66 20.5q-47 0 -73 -29t-26 -82v-124q0 -53 26 -82t73 -29zM273 584
q-31 0 -55 7.5t-43.5 25.5t-36 48.5t-32.5 76.5l66 35l20 -40q9 -20 18 -33t18.5 -20.5t20.5 -10.5t24 -3q26 0 44.5 14t37.5 53l20 40l65 -35q-16 -46 -32.5 -76.5t-36.5 -48.5t-44 -25.5t-54 -7.5z" />
    <glyph glyph-name="acircumflex.alt01" horiz-adv-x="544" 
d="M357 86h-14q-11 -44 -44.5 -71t-78.5 -27q-92 0 -136 69.5t-44 203.5t44 203.5t136 69.5q45 0 78.5 -27t44.5 -71h14v86h121v-522h-121v86zM266 88q41 0 66 20.5t25 57.5v190q0 37 -25 57.5t-66 20.5q-47 0 -73 -29t-26 -82v-124q0 -53 26 -82t73 -29zM325 787l121 -157
l-61 -47l-112 118l-112 -118l-61 47l121 157h104z" />
    <glyph glyph-name="adieresis.alt01" horiz-adv-x="544" 
d="M357 86h-14q-11 -44 -44.5 -71t-78.5 -27q-92 0 -136 69.5t-44 203.5t44 203.5t136 69.5q45 0 78.5 -27t44.5 -71h14v86h121v-522h-121v86zM266 88q41 0 66 20.5t25 57.5v190q0 37 -25 57.5t-66 20.5q-47 0 -73 -29t-26 -82v-124q0 -53 26 -82t73 -29zM180 607
q-37 0 -51.5 13.5t-14.5 39.5v25q0 26 14.5 39.5t51.5 13.5t51.5 -13.5t14.5 -39.5v-25q0 -26 -14.5 -39.5t-51.5 -13.5zM366 607q-37 0 -51.5 13.5t-14.5 39.5v25q0 26 14.5 39.5t51.5 13.5t51.5 -13.5t14.5 -39.5v-25q0 -26 -14.5 -39.5t-51.5 -13.5z" />
    <glyph glyph-name="uni1EA1.alt01" horiz-adv-x="544" 
d="M357 86h-14q-11 -44 -44.5 -71t-78.5 -27q-92 0 -136 69.5t-44 203.5t44 203.5t136 69.5q45 0 78.5 -27t44.5 -71h14v86h121v-522h-121v86zM266 88q41 0 66 20.5t25 57.5v190q0 37 -25 57.5t-66 20.5q-47 0 -73 -29t-26 -82v-124q0 -53 26 -82t73 -29zM266 -189
q-37 0 -52.5 14t-15.5 38v27q0 24 15.5 38t52.5 14t52.5 -14t15.5 -38v-27q0 -24 -15.5 -38t-52.5 -14z" />
    <glyph glyph-name="agrave.alt01" horiz-adv-x="544" 
d="M357 86h-14q-11 -44 -44.5 -71t-78.5 -27q-92 0 -136 69.5t-44 203.5t44 203.5t136 69.5q45 0 78.5 -27t44.5 -71h14v86h121v-522h-121v86zM266 88q41 0 66 20.5t25 57.5v190q0 37 -25 57.5t-66 20.5q-47 0 -73 -29t-26 -82v-124q0 -53 26 -82t73 -29zM141 754l104 51
l88 -189l-73 -35z" />
    <glyph glyph-name="uni1EA3.alt01" horiz-adv-x="544" 
d="M357 86h-14q-11 -44 -44.5 -71t-78.5 -27q-92 0 -136 69.5t-44 203.5t44 203.5t136 69.5q45 0 78.5 -27t44.5 -71h14v86h121v-522h-121v86zM266 88q41 0 66 20.5t25 57.5v190q0 37 -25 57.5t-66 20.5q-47 0 -73 -29t-26 -82v-124q0 -53 26 -82t73 -29zM171 791h130
q45 0 63 -17.5t18 -49.5q0 -26 -9.5 -46.5t-30.5 -51.5l-38 -55l-65 30l45 101h-113v89z" />
    <glyph glyph-name="amacron.alt01" horiz-adv-x="544" 
d="M357 86h-14q-11 -44 -44.5 -71t-78.5 -27q-92 0 -136 69.5t-44 203.5t44 203.5t136 69.5q45 0 78.5 -27t44.5 -71h14v86h121v-522h-121v86zM266 88q41 0 66 20.5t25 57.5v190q0 37 -25 57.5t-66 20.5q-47 0 -73 -29t-26 -82v-124q0 -53 26 -82t73 -29zM138 720h270v-91
h-270v91z" />
    <glyph glyph-name="aogonek.alt01" horiz-adv-x="542" 
d="M501 -164q-16 -20 -43 -33.5t-59 -13.5q-51 0 -79 20t-28 59q0 36 33 67t96 57l-2 8h-62v86h-14q-11 -44 -44.5 -71t-78.5 -27q-92 0 -136 69.5t-44 203.5t44 203.5t136 69.5q45 0 78.5 -27t44.5 -71h14v86h121v-522q-57 -35 -79 -60.5t-22 -51.5q0 -15 9 -24t26 -9
q16 0 27.5 7t19.5 18zM266 88q41 0 66 20.5t25 57.5v190q0 37 -25 57.5t-66 20.5q-47 0 -73 -29t-26 -82v-124q0 -53 26 -82t73 -29z" />
    <glyph glyph-name="aring.alt01" horiz-adv-x="544" 
d="M357 86h-14q-11 -44 -44.5 -71t-78.5 -27q-92 0 -136 69.5t-44 203.5t44 203.5t136 69.5q45 0 78.5 -27t44.5 -71h14v86h121v-522h-121v86zM266 88q41 0 66 20.5t25 57.5v190q0 37 -25 57.5t-66 20.5q-47 0 -73 -29t-26 -82v-124q0 -53 26 -82t73 -29zM273 563
q-62 0 -97.5 36.5t-35.5 98.5t35.5 98.5t97.5 36.5t97.5 -36.5t35.5 -98.5t-35.5 -98.5t-97.5 -36.5zM273 628q24 0 38 11.5t14 34.5v48q0 23 -14 34.5t-38 11.5t-38 -11.5t-14 -34.5v-48q0 -23 14 -34.5t38 -11.5z" />
    <glyph glyph-name="aringacute.alt01" horiz-adv-x="544" 
d="M357 86h-14q-11 -44 -44.5 -71t-78.5 -27q-92 0 -136 69.5t-44 203.5t44 203.5t136 69.5q45 0 78.5 -27t44.5 -71h14v86h121v-522h-121v86zM266 88q41 0 66 20.5t25 57.5v190q0 37 -25 57.5t-66 20.5q-47 0 -73 -29t-26 -82v-124q0 -53 26 -82t73 -29zM263 815l-44 41
l112 123l64 -60zM273 565q-62 0 -97.5 30.5t-35.5 87.5t35.5 87.5t97.5 30.5t97.5 -30.5t35.5 -87.5t-35.5 -87.5t-97.5 -30.5zM273 625q24 0 39.5 12t15.5 33v26q0 21 -15.5 33t-39.5 12t-39.5 -12t-15.5 -33v-26q0 -21 15.5 -33t39.5 -12z" />
    <glyph glyph-name="atilde.alt01" horiz-adv-x="544" 
d="M357 86h-14q-11 -44 -44.5 -71t-78.5 -27q-92 0 -136 69.5t-44 203.5t44 203.5t136 69.5q45 0 78.5 -27t44.5 -71h14v86h121v-522h-121v86zM266 88q41 0 66 20.5t25 57.5v190q0 37 -25 57.5t-66 20.5q-47 0 -73 -29t-26 -82v-124q0 -53 26 -82t73 -29zM344 606
q-18 0 -33 4.5t-41 18.5t-41.5 19.5t-26.5 5.5q-17 0 -27.5 -6.5t-24.5 -20.5l-44 56q17 27 42 42.5t54 15.5q18 0 33 -4.5t41 -18.5t41.5 -19.5t26.5 -5.5q17 0 27.5 6.5t24.5 20.5l44 -56q-17 -27 -42 -42.5t-54 -15.5z" />
    <glyph glyph-name="uni1EAF.alt01" horiz-adv-x="544" 
d="M357 86h-14q-11 -44 -44.5 -71t-78.5 -27q-92 0 -136 69.5t-44 203.5t44 203.5t136 69.5q45 0 78.5 -27t44.5 -71h14v86h121v-522h-121v86zM266 88q41 0 66 20.5t25 57.5v190q0 37 -25 57.5t-66 20.5q-47 0 -73 -29t-26 -82v-124q0 -53 26 -82t73 -29zM273 576
q-67 0 -106 35t-67 112l66 35l19 -40q14 -29 35 -44t53 -15t52.5 15t34.5 44l20 40l66 -35q-14 -39 -30 -66.5t-36 -45.5t-46.5 -26.5t-60.5 -8.5zM288 723l-64 34l85 187l95 -49z" />
    <glyph glyph-name="uni1EB7.alt01" horiz-adv-x="544" 
d="M357 86h-14q-11 -44 -44.5 -71t-78.5 -27q-92 0 -136 69.5t-44 203.5t44 203.5t136 69.5q45 0 78.5 -27t44.5 -71h14v86h121v-522h-121v86zM266 88q41 0 66 20.5t25 57.5v190q0 37 -25 57.5t-66 20.5q-47 0 -73 -29t-26 -82v-124q0 -53 26 -82t73 -29zM273 584
q-31 0 -55 7.5t-43.5 25.5t-36 48.5t-32.5 76.5l66 35l20 -40q9 -20 18 -33t18.5 -20.5t20.5 -10.5t24 -3q26 0 44.5 14t37.5 53l20 40l65 -35q-16 -46 -32.5 -76.5t-36.5 -48.5t-44 -25.5t-54 -7.5zM266 -189q-37 0 -52.5 14t-15.5 38v27q0 24 15.5 38t52.5 14t52.5 -14
t15.5 -38v-27q0 -24 -15.5 -38t-52.5 -14z" />
    <glyph glyph-name="uni1EB1.alt01" horiz-adv-x="544" 
d="M357 86h-14q-11 -44 -44.5 -71t-78.5 -27q-92 0 -136 69.5t-44 203.5t44 203.5t136 69.5q45 0 78.5 -27t44.5 -71h14v86h121v-522h-121v86zM266 88q41 0 66 20.5t25 57.5v190q0 37 -25 57.5t-66 20.5q-47 0 -73 -29t-26 -82v-124q0 -53 26 -82t73 -29zM273 576
q-67 0 -106 35t-67 112l66 35l19 -40q14 -29 35 -44t53 -15t52.5 15t34.5 44l20 40l66 -35q-14 -39 -30 -66.5t-36 -45.5t-46.5 -26.5t-60.5 -8.5zM142 895l95 49l85 -187l-64 -34z" />
    <glyph glyph-name="uni1EB3.alt01" horiz-adv-x="544" 
d="M357 86h-14q-11 -44 -44.5 -71t-78.5 -27q-92 0 -136 69.5t-44 203.5t44 203.5t136 69.5q45 0 78.5 -27t44.5 -71h14v86h121v-522h-121v86zM266 88q41 0 66 20.5t25 57.5v190q0 37 -25 57.5t-66 20.5q-47 0 -73 -29t-26 -82v-124q0 -53 26 -82t73 -29zM273 576
q-67 0 -106 35t-67 112l66 35l19 -40q14 -29 35 -44t53 -15t52.5 15t34.5 44l20 40l66 -35q-14 -39 -30 -66.5t-36 -45.5t-46.5 -26.5t-60.5 -8.5zM164 934h115q45 0 63 -17.5t18 -49.5q0 -26 -9 -47t-31 -51l-33 -47l-51 26l44 105h-116v81z" />
    <glyph glyph-name="uni1EB5.alt01" horiz-adv-x="544" 
d="M357 86h-14q-11 -44 -44.5 -71t-78.5 -27q-92 0 -136 69.5t-44 203.5t44 203.5t136 69.5q45 0 78.5 -27t44.5 -71h14v86h121v-522h-121v86zM266 88q41 0 66 20.5t25 57.5v190q0 37 -25 57.5t-66 20.5q-47 0 -73 -29t-26 -82v-124q0 -53 26 -82t73 -29zM273 576
q-67 0 -106 35t-67 112l66 35l19 -40q14 -29 35 -44t53 -15t52.5 15t34.5 44l20 40l66 -35q-14 -39 -30 -66.5t-36 -45.5t-46.5 -26.5t-60.5 -8.5zM341 783q-19 0 -38 6.5t-36 16.5q-20 11 -37.5 18.5t-31.5 7.5q-16 0 -26.5 -6.5t-24.5 -19.5l-40 52q37 59 95 59
q19 0 38 -6.5t36 -16.5q20 -11 37.5 -18.5t31.5 -7.5q16 0 26.5 6.5t24.5 19.5l40 -52q-37 -59 -95 -59z" />
    <glyph glyph-name="uni1EA5.alt01" horiz-adv-x="544" 
d="M357 86h-14q-11 -44 -44.5 -71t-78.5 -27q-92 0 -136 69.5t-44 203.5t44 203.5t136 69.5q45 0 78.5 -27t44.5 -71h14v86h121v-522h-121v86zM266 88q41 0 66 20.5t25 57.5v190q0 37 -25 57.5t-66 20.5q-47 0 -73 -29t-26 -82v-124q0 -53 26 -82t73 -29zM438 723l-65 35
l83 186l95 -50zM325 770l125 -148l-57 -49l-119 117l-120 -117l-56 49l124 148h103z" />
    <glyph glyph-name="uni1EAD.alt01" horiz-adv-x="544" 
d="M357 86h-14q-11 -44 -44.5 -71t-78.5 -27q-92 0 -136 69.5t-44 203.5t44 203.5t136 69.5q45 0 78.5 -27t44.5 -71h14v86h121v-522h-121v86zM266 88q41 0 66 20.5t25 57.5v190q0 37 -25 57.5t-66 20.5q-47 0 -73 -29t-26 -82v-124q0 -53 26 -82t73 -29zM325 787l121 -157
l-61 -47l-112 118l-112 -118l-61 47l121 157h104zM266 -189q-37 0 -52.5 14t-15.5 38v27q0 24 15.5 38t52.5 14t52.5 -14t15.5 -38v-27q0 -24 -15.5 -38t-52.5 -14z" />
    <glyph glyph-name="uni1EA7.alt01" horiz-adv-x="544" 
d="M357 86h-14q-11 -44 -44.5 -71t-78.5 -27q-92 0 -136 69.5t-44 203.5t44 203.5t136 69.5q45 0 78.5 -27t44.5 -71h14v86h121v-522h-121v86zM266 88q41 0 66 20.5t25 57.5v190q0 37 -25 57.5t-66 20.5q-47 0 -73 -29t-26 -82v-124q0 -53 26 -82t73 -29zM-4 894l96 50
l84 -186l-65 -35zM325 770l125 -148l-57 -49l-119 117l-120 -117l-56 49l124 148h103z" />
    <glyph glyph-name="uni1EA9.alt01" horiz-adv-x="544" 
d="M357 86h-14q-11 -44 -44.5 -71t-78.5 -27q-92 0 -136 69.5t-44 203.5t44 203.5t136 69.5q45 0 78.5 -27t44.5 -71h14v86h121v-522h-121v86zM266 88q41 0 66 20.5t25 57.5v190q0 37 -25 57.5t-66 20.5q-47 0 -73 -29t-26 -82v-124q0 -53 26 -82t73 -29zM313 931h116
q45 0 62.5 -17.5t17.5 -49.5q0 -26 -9 -47t-30 -51l-34 -47l-51 26l44 105h-116v81zM325 770l125 -148l-57 -49l-119 117l-120 -117l-56 49l124 148h103z" />
    <glyph glyph-name="uni1EAB.alt01" horiz-adv-x="544" 
d="M357 86h-14q-11 -44 -44.5 -71t-78.5 -27q-92 0 -136 69.5t-44 203.5t44 203.5t136 69.5q45 0 78.5 -27t44.5 -71h14v86h121v-522h-121v86zM266 88q41 0 66 20.5t25 57.5v190q0 37 -25 57.5t-66 20.5q-47 0 -73 -29t-26 -82v-124q0 -53 26 -82t73 -29zM201 925
q20 0 38.5 -6t36.5 -17q20 -11 37 -18.5t31 -7.5q16 0 26.5 6.5t24.5 19.5l41 -52q-37 -59 -95 -59q-20 0 -38.5 6t-36.5 17q-20 11 -37 18.5t-31 7.5q-16 0 -26.5 -6.5t-24.5 -19.5l-41 52q37 59 95 59zM323 761l126 -139l-55 -49l-121 108l-121 -108l-55 49l126 139h100z
" />
    <glyph glyph-name="gbreve.alt01" horiz-adv-x="544" 
d="M478 18q0 -112 -56.5 -171t-170.5 -59q-64 0 -108.5 20t-73.5 53l66 78q45 -53 116 -53q55 0 80.5 31t25.5 92v86h-14q-11 -45 -44.5 -72t-78.5 -27q-92 0 -136 69t-44 200t44 200t136 69q45 0 78.5 -27t44.5 -71h14v86h121v-504zM266 99q41 0 66 20.5t25 57.5v179
q0 37 -25 57.5t-66 20.5q-47 0 -73 -29t-26 -82v-113q0 -53 26 -82t73 -29zM272 584q-31 0 -55 7.5t-43.5 25.5t-36 48.5t-32.5 76.5l66 35l20 -40q9 -20 18 -33t18.5 -20.5t20.5 -10.5t24 -3q26 0 44.5 14t37.5 53l20 40l65 -35q-16 -46 -32.5 -76.5t-36.5 -48.5t-44 -25.5
t-54 -7.5z" />
    <glyph glyph-name="gcircumflex.alt01" horiz-adv-x="544" 
d="M478 18q0 -112 -56.5 -171t-170.5 -59q-64 0 -108.5 20t-73.5 53l66 78q45 -53 116 -53q55 0 80.5 31t25.5 92v86h-14q-11 -45 -44.5 -72t-78.5 -27q-92 0 -136 69t-44 200t44 200t136 69q45 0 78.5 -27t44.5 -71h14v86h121v-504zM266 99q41 0 66 20.5t25 57.5v179
q0 37 -25 57.5t-66 20.5q-47 0 -73 -29t-26 -82v-113q0 -53 26 -82t73 -29zM324 787l121 -157l-61 -47l-112 118l-112 -118l-61 47l121 157h104z" />
    <glyph glyph-name="gcommaaccent.alt01" horiz-adv-x="544" 
d="M478 18q0 -112 -56.5 -171t-170.5 -59q-64 0 -108.5 20t-73.5 53l66 78q45 -53 116 -53q55 0 80.5 31t25.5 92v86h-14q-11 -45 -44.5 -72t-78.5 -27q-92 0 -136 69t-44 200t44 200t136 69q45 0 78.5 -27t44.5 -71h14v86h121v-504zM266 99q41 0 66 20.5t25 57.5v179
q0 37 -25 57.5t-66 20.5q-47 0 -73 -29t-26 -82v-113q0 -53 26 -82t73 -29zM272 582q-64 0 -64 53v19q0 45 18.5 82.5t45.5 62.5h74q-23 -23 -36.5 -44t-20.5 -49q26 -2 36.5 -14.5t10.5 -37.5v-19q0 -53 -64 -53z" />
    <glyph glyph-name="gdotaccent.alt01" horiz-adv-x="544" 
d="M478 18q0 -112 -56.5 -171t-170.5 -59q-64 0 -108.5 20t-73.5 53l66 78q45 -53 116 -53q55 0 80.5 31t25.5 92v86h-14q-11 -45 -44.5 -72t-78.5 -27q-92 0 -136 69t-44 200t44 200t136 69q45 0 78.5 -27t44.5 -71h14v86h121v-504zM266 99q41 0 66 20.5t25 57.5v179
q0 37 -25 57.5t-66 20.5q-47 0 -73 -29t-26 -82v-113q0 -53 26 -82t73 -29zM272 607q-37 0 -52.5 14.5t-15.5 39.5v23q0 25 15.5 39.5t52.5 14.5t52.5 -14.5t15.5 -39.5v-23q0 -25 -15.5 -39.5t-52.5 -14.5z" />
    <glyph glyph-name="ijacute" horiz-adv-x="501" 
d="M249 -103h72v625h121v-600q0 -63 -29 -92.5t-95 -29.5h-69v97zM392 581l-73 35l88 189l104 -51zM141 581l-73 35l88 189l104 -51zM69 0v522h121v-522h-121z" />
    <glyph glyph-name="jacute" horiz-adv-x="255" 
d="M-4 -103h72v625h121v-600q0 -63 -29 -92.5t-95 -29.5h-69v97zM143 581l-73 35l88 189l104 -51z" />
    <glyph glyph-name="germandbls.alt01" horiz-adv-x="533" 
d="M65 0v608q0 62 30 97t98 35h114v-97h-123v-119h302v-90l-129 -213q79 -12 118.5 -58.5t39.5 -143.5q0 -116 -60 -167.5t-166 -51.5h-61v97h54q58 0 84.5 22.5t26.5 78.5v38q0 56 -26.5 78.5t-84.5 22.5h-31v92l117 198h-184v-427h-119z" />
    <glyph glyph-name="IJacute" horiz-adv-x="587" 
d="M520 698v-509q0 -94 -58.5 -147t-165.5 -53q-101 0 -153.5 48.5t-66.5 134.5l115 24q8 -52 33.5 -76t70.5 -24q100 0 100 103v394h-90v105h215zM70 698h125v-397h-125v397zM147 744l-73 35l88 189l104 -51zM426 744l-73 35l88 189l104 -51z" />
    <glyph glyph-name="Jacute" horiz-adv-x="494" 
d="M426 698v-518q0 -91 -52.5 -141.5t-149.5 -50.5q-92 0 -139.5 47.5t-61.5 133.5l113 24q8 -51 28 -74t59 -23q37 0 57.5 22t20.5 73v404h-194v103h319zM281 744l-73 35l88 189l104 -51z" />
    <glyph glyph-name="tilde.alt01" 
d="M329 609q-17 0 -33 6t-31 15t-29 14.5t-24 5.5q-23 0 -44 -22l-42 56q18 29 38 41.5t47 12.5q17 0 33 -6t31 -15t29.5 -14.5t23.5 -5.5q13 0 22.5 5t21.5 17l42 -56q-18 -29 -38 -41.5t-47 -12.5z" />
    <glyph glyph-name="macron.alt01" 
d="M140 720h260v-92h-260v92z" />
    <glyph glyph-name="dieresis.alt01" 
d="M183 607q-37 0 -51.5 13.5t-14.5 39.5v25q0 26 14.5 39.5t51.5 13.5t51.5 -13.5t14.5 -39.5v-25q0 -26 -14.5 -39.5t-51.5 -13.5zM357 607q-37 0 -51.5 13.5t-14.5 39.5v25q0 26 14.5 39.5t51.5 13.5t51.5 -13.5t14.5 -39.5v-25q0 -26 -14.5 -39.5t-51.5 -13.5z" />
    <glyph glyph-name="circumflex.alt01" 
d="M322 787l106 -157l-61 -47l-97 118l-97 -118l-61 47l106 157h104z" />
    <glyph glyph-name="breve.alt01" 
d="M270 584q-30 0 -53.5 8.5t-41.5 28t-32 50.5t-26 77l66 28l17 -43q13 -35 28 -49t42 -14t42.5 14.5t28.5 48.5l16 43l66 -28q-12 -46 -26.5 -77t-33 -50.5t-41.5 -28t-52 -8.5z" />
    <glyph glyph-name="ringacute" 
d="M260 815l-44 41l112 123l64 -60zM270 565q-62 0 -97.5 30.5t-35.5 87.5t35.5 87.5t97.5 30.5t97.5 -30.5t35.5 -87.5t-35.5 -87.5t-97.5 -30.5zM270 625q24 0 39.5 12t15.5 33v26q0 21 -15.5 33t-39.5 12t-39.5 -12t-15.5 -33v-26q0 -21 15.5 -33t39.5 -12z" />
    <glyph glyph-name="breveacute" horiz-adv-x="0" 
d="M0 576q-67 0 -106 35t-67 112l66 35l19 -40q14 -29 35 -44t53 -15t52.5 15t34.5 44l20 40l66 -35q-14 -39 -30 -66.5t-36 -45.5t-46.5 -26.5t-60.5 -8.5zM15 723l-64 34l85 187l95 -49z" />
    </font>
</defs>
</svg>
